<?xml version="1.0" standalone="no"?>
<!DOCTYPE svg PUBLIC "-//W3C//DTD SVG 1.1//EN" "http://www.w3.org/Graphics/SVG/1.1/DTD/svg11.dtd" >
<svg xmlns="http://www.w3.org/2000/svg" xmlns:xlink="http://www.w3.org/1999/xlink" version="1.1">
<metadata>
Created by FontForge 20161003 at Fri Feb 24 15:59:59 2017
 By www-data
Copyright (c) 2011 by Pavel Pavlov &#38; Svetoslav Simov. All rights reserved.
</metadata>
<defs>
<font id="unisansbook58b0584733f29" horiz-adv-x="811" >
  <font-face 
    font-family="unisansbook58b0584733f29"
    font-weight="300"
    font-stretch="normal"
    units-per-em="1000"
    panose-1="2 0 0 0 0 0 0 0 0 0"
    ascent="750"
    descent="-250"
    x-height="696"
    cap-height="700"
    bbox="-114.4 -226.19 1415 924"
    underline-thickness="50"
    underline-position="-150"
    unicode-range="U+0020-FB02"
  />
<missing-glyph horiz-adv-x="238" 
 />
    <glyph glyph-name=".notdef" horiz-adv-x="238" 
 />
    <glyph glyph-name=".null" horiz-adv-x="0" 
 />
    <glyph glyph-name="nonmarkingreturn" horiz-adv-x="333" 
 />
    <glyph glyph-name="space" unicode=" " horiz-adv-x="359" 
 />
    <glyph glyph-name="exclam" unicode="!" horiz-adv-x="142" 
d="M72 -15q-15 0 -25.5 10.5t-10.5 25.5q0 14 10.5 24.5t25.5 10.5t25.5 -10.5t10.5 -24.5q0 -15 -10.5 -25.5t-25.5 -10.5zM44 182v495q0 11 8.5 19.5t20.5 8.5t20.5 -8.5t8.5 -19.5v-495q0 -12 -8.5 -20.5t-20.5 -8.5t-20.5 8.5t-8.5 20.5z" />
    <glyph glyph-name="comma" unicode="," horiz-adv-x="249" 
d="M56 -56l41 91q8 16 24 17t26 -11.5t2 -28.5l-41 -92q-5 -10 -16.5 -14.5t-21.5 0.5q-11 5 -15 16t1 22z" />
    <glyph glyph-name="period" unicode="." horiz-adv-x="242" 
d="M113 -12q-17 0 -29.5 12.5t-12.5 29.5t12.5 29t29.5 12t29.5 -12t12.5 -29t-12.5 -29.5t-29.5 -12.5z" />
    <glyph glyph-name="zero" unicode="0" horiz-adv-x="714" 
d="M667 516v-326q0 -81 -54 -137t-134 -56h-241q-78 0 -133 55t-55 133v331q0 78 55 133t133 55h241q78 0 133 -55t55 -133zM610 190v326q0 54 -38.5 92.5t-92.5 38.5h-241q-54 0 -92.5 -38.5t-38.5 -92.5v-331q0 -54 38 -92.5t93 -38.5h241q56 0 93.5 39.5t37.5 96.5z" />
    <glyph glyph-name="one" unicode="1" horiz-adv-x="307" 
d="M128 698q12 0 20 -8.5t8 -20.5v-611h75q12 0 20 -8.5t8 -20.5t-8 -20.5t-20 -8.5h-206q-12 0 -20.5 8.5t-8.5 20.5t8.5 20.5t20.5 8.5h74v583h-4h-70q-12 0 -20.5 8t-8.5 20t8.5 20.5t20.5 8.5h103z" />
    <glyph glyph-name="two" unicode="2" horiz-adv-x="687" 
d="M41 503v171q0 12 8.5 20.5t20.5 8.5t20 -8.5t8 -20.5v-45q28 35 57.5 50t73.5 15h250q99 0 153 -87q49 -79 31 -174q-20 -101 -108 -143q-47 -23 -109 -23h-278q-34 0 -46.5 -1t-26 -10t-16.5 -27.5t-3 -54.5v-116h528v54q0 12 8.5 20.5t20.5 8.5t20 -8.5t8 -20.5v-83
q0 -12 -8 -20.5t-20 -8.5h-585q-12 0 -20.5 8.5t-8.5 20.5v35v49v60q0 93 29.5 122.5t119.5 29.5h278q107 0 146.5 77.5t2.5 155t-116 77.5h-250q-54 0 -92 -38q-39 -39 -39 -94q0 -12 -8 -20t-20 -8t-20.5 8t-8.5 20z" />
    <glyph glyph-name="three" unicode="3" horiz-adv-x="705" 
d="M502 320h-229q-12 0 -20.5 8.5t-8.5 20.5t8.5 20t20.5 8h200q54 0 93 39t39 93q0 55 -39 92q-39 39 -93 39h-379v-84q0 -12 -8.5 -20t-20.5 -8t-20 8t-8 20v113q0 11 8 19.5t20 8.5h408q77 0 134 -55q55 -55 55 -133q0 -77 -55 -134q-14 -12 -21 -17q29 -16 49 -36
q55 -55 55 -133t-55 -133q-56 -56 -133 -56h-313q-58 0 -105.5 34.5t-66.5 89.5q-4 11 1 21.5t16 14.5t22 -1t15 -16q13 -38 45.5 -62t72.5 -23h313q55 0 93 38q38 40 38 93t-38 93q-38 38 -93 38z" />
    <glyph glyph-name="four" unicode="4" horiz-adv-x="673" 
d="M629 643h-75v-378h75q12 0 20 -8t8 -20t-8 -20.5t-20 -8.5h-75v-151h75q12 0 20 -8.5t8 -20.5t-8 -20t-20 -8h-206q-12 0 -20.5 8t-8.5 20t8.5 20.5t20.5 8.5h74v151h-457q-14 0 -23 10.5t-6 24.5l94 400h-68q-12 0 -20.5 8.5t-8.5 20.5t8.5 20.5t20.5 8.5h100
q18 0 25.5 -14.5t3.5 -32.5l-91 -389h422v378h-74q-12 0 -20.5 8.5t-8.5 20.5t8.5 20.5t20.5 8.5h206q12 0 20 -8.5t8 -20.5t-8 -20.5t-20 -8.5z" />
    <glyph glyph-name="five" unicode="5" horiz-adv-x="700" 
d="M108 377h218h165q79 0 133 -56q55 -55 55 -133t-55 -133t-133 -55h-301h-1q-36 0 -66.5 12.5t-48.5 31t-31 36.5t-18 30l-5 13q-4 11 1.5 21.5t16.5 15.5q11 4 21.5 -1.5t14.5 -16.5q1 -3 3.5 -9t12.5 -20.5t22 -26t33 -20.5t45 -9h301q53 0 93 38q38 38 38 93t-38 93
t-93 38h-165h-247q-12 0 -20 8.5t-8 20.5v159v160q0 11 8 19.5t20 8.5h518q12 0 20.5 -8.5t8.5 -19.5v-113q0 -12 -8.5 -20t-20.5 -8t-20 8t-8 20v84h-461v-131v-130z" />
    <glyph glyph-name="six" unicode="6" horiz-adv-x="683" 
d="M85 56q-63 55 -63 131v320q-1 81 53 137t135 56h264q75 0 130 -52q20 -19 0.5 -40t-39.5 -2q-39 37 -91 37h-264q-56 0 -94 -39.5t-38 -95.5l1 -202q26 34 66.5 52.5t83.5 18.5h248q59 0 102.5 -28t63 -70t20 -91t-19 -91t-63.5 -70t-103 -28h-248q-82 0 -144 57zM229 56
h248q62 0 96.5 41t34.5 91t-35 91t-96 41h-248q-59 0 -106 -42q-44 -40 -44 -90.5t44 -89.5q47 -42 106 -42z" />
    <glyph glyph-name="seven" unicode="7" horiz-adv-x="657" 
d="M633 648l-241 -291h111q12 0 20.5 -8.5t8.5 -19.5q0 -13 -8.5 -21.5t-20.5 -8.5h-159l-239 -290q-7 -9 -19 -10t-21 7t-10 20t6 21l209 252h-99q-12 0 -20.5 8.5t-8.5 21.5q0 11 8.5 19.5t20.5 8.5h147l233 282h-484v-87q0 -13 -8.5 -21t-20.5 -8t-20.5 8t-8.5 21v116
q0 13 8.5 21.5t20.5 8.5h575q19 0 26 -18t-6 -32z" />
    <glyph glyph-name="eight" unicode="8" horiz-adv-x="684" 
d="M261 378h154q54 0 93 39t39 94t-38.5 93t-93.5 38h-154q-55 0 -93.5 -38t-38.5 -93t39 -94t93 -39zM539 368q44 -16 72 -46q55 -55 55 -134q0 -81 -56.5 -134.5t-138.5 -53.5h-267q-78 0 -133.5 55t-55.5 133q0 80 56 134q29 30 68 44l-3.5 3.5t-4.5 4t-3 3.5
q-56 56 -56 134t55.5 133.5t133.5 55.5h154q78 0 133.5 -55.5t55.5 -133.5t-56 -134zM609 188q0 54 -38 94q-39 39 -93 39h-274q-54 0 -93 -39t-39 -94q0 -54 38.5 -92.5t93.5 -38.5h267q59 0 98.5 36.5t39.5 94.5z" />
    <glyph glyph-name="nine" unicode="9" horiz-adv-x="677" 
d="M598 644q63 -58 63 -132v-319q0 -81 -54 -136.5t-134 -55.5q-45 0 -133 -0.5t-132 -0.5q-75 0 -130 52q-8 7 -9 16.5t3.5 16.5t12 12t16.5 4t17 -8q38 -36 90 -36q44 0 132 0.5t133 0.5q56 0 93.5 39t37.5 96v201q-27 -34 -67.5 -53t-83.5 -19h-248q-44 0 -80.5 16.5
t-58.5 43t-34.5 60.5t-12.5 69.5t12 69.5t34 60.5t58.5 43t81.5 16.5h248q80 0 145 -57zM453 643h-248q-50 0 -83.5 -27t-41 -66t0.5 -78t41.5 -66t82.5 -27h248q58 0 106 43q44 39 44 89.5t-43 90.5q-48 41 -107 41z" />
    <glyph glyph-name="question" unicode="?" horiz-adv-x="609" 
d="M274 -15h-1q-15 0 -25.5 10.5t-10.5 25.5q0 14 10.5 24.5t25.5 10.5h1q15 0 25.5 -10.5t10.5 -24.5q0 -15 -10.5 -25.5t-25.5 -10.5zM69 517q0 -12 -8.5 -20.5t-20.5 -8.5t-20.5 8.5t-8.5 20.5q0 78 55.5 133t133.5 55h198q54 0 95 -20.5t60.5 -53.5t27.5 -73t-3 -80
t-31.5 -73.5t-58 -54.5t-82.5 -21q-51 0 -78 -14t-27 -59v-74q0 -12 -8.5 -20.5t-20.5 -8.5t-20.5 8.5t-8.5 20.5v74q0 72 41.5 99t117.5 29q59 1 92.5 42.5t33.5 91t-34.5 90t-95.5 40.5h-198q-55 0 -93 -38.5t-38 -92.5z" />
    <glyph glyph-name="A" unicode="A" 
d="M679 292q12 0 20.5 -8.5t8.5 -19.5q0 -13 -8.5 -21.5t-20.5 -8.5h-44l79 -176h68q12 0 20.5 -8.5t8.5 -20.5t-8.5 -20.5t-20.5 -8.5h-192q-12 0 -20.5 8.5t-8.5 20.5t8.5 20.5t20.5 8.5h61l-79 176h-333l-79 -176h62q11 0 19.5 -8.5t8.5 -20.5t-8.5 -20.5t-19.5 -8.5
h-193q-12 0 -20.5 8.5t-8.5 20.5t8.5 20.5t20.5 8.5h68l79 176h-44q-12 0 -20.5 8.5t-8.5 21.5q0 11 8.5 19.5t20.5 8.5h70l158 352h-50q-12 0 -20.5 8.5t-8.5 19.5q0 12 8.5 20.5t20.5 8.5h191q12 0 20.5 -8.5t8.5 -20.5q0 -11 -8.5 -19.5t-20.5 -8.5h-50l158 -352h70z
M405 606l-140 -314h281z" />
    <glyph glyph-name="B" unicode="B" horiz-adv-x="748" 
d="M148 640h-74q-12 0 -20.5 8.5t-8.5 19.5q0 12 8.5 20.5t20.5 8.5h430q78 0 133 -55t55 -133q0 -96 -76 -151q48 -24 76.5 -69.5t28.5 -99.5q0 -79 -56 -133q-56 -56 -133 -56h-355h-103q-12 0 -20.5 8.5t-8.5 20.5t8.5 20.5t20.5 8.5h74v262h-74q-12 0 -20.5 8.5
t-8.5 20.5t8.5 20t20.5 8h74v263zM206 320v-262h326q55 0 93 38t38 93q0 54 -38 92.5t-93 38.5h-28h-298zM206 640v-263h298q54 0 92.5 38.5t38.5 93.5q0 54 -38.5 92.5t-92.5 38.5h-298z" />
    <glyph glyph-name="C" unicode="C" horiz-adv-x="686" 
d="M361 58h271q11 0 19.5 -8.5t8.5 -20.5t-8.5 -20.5t-19.5 -8.5h-271q-83 0 -149.5 30t-108 79t-63.5 111.5t-22 127.5t22 127.5t63.5 111.5t108 79t149.5 30h271q11 0 19.5 -8.5t8.5 -20.5v-111q0 -12 -8.5 -20.5t-19.5 -8.5q-12 0 -20.5 8.5t-8.5 20.5v83h-242
q-69 0 -125 -25t-90.5 -66t-53 -93t-18.5 -106.5t18.5 -106.5t53 -93t90.5 -66t125 -25z" />
    <glyph glyph-name="D" unicode="D" horiz-adv-x="739" 
d="M151 639h-79q-11 0 -19.5 8t-8.5 20t8.5 20.5t19.5 8.5h297q83 0 150 -30t108 -79t63.5 -111.5t22.5 -127.5t-22.5 -127.5t-63.5 -111.5t-108 -79t-150 -30h-297q-11 0 -19.5 8.5t-8.5 20.5t8.5 20.5t19.5 8.5h79v581zM208 58h161q91 0 158.5 43t97.5 107.5t30 140
t-30 140t-97.5 107.5t-158.5 43h-161v-581z" />
    <glyph glyph-name="E" unicode="E" horiz-adv-x="724" 
d="M614 642h-409v-262h268q12 0 20.5 -8.5t8.5 -20.5t-8.5 -20t-20.5 -8h-268v-266h436v77q0 11 8.5 19.5t20.5 8.5t20 -8.5t8 -19.5v-102q0 -13 -10.5 -22.5t-23.5 -9.5h-591q-11 0 -19.5 8t-8.5 20t8.5 20.5t19.5 8.5h75v266h-75q-11 0 -19.5 8t-8.5 20t8.5 20.5t19.5 8.5
h75v262h-75q-11 0 -19.5 8.5t-8.5 20.5t8.5 20.5t19.5 8.5h567q13 0 22 -8t9 -21v-112q0 -12 -8.5 -20t-19.5 -8q-12 0 -20.5 8t-8.5 20v83z" />
    <glyph glyph-name="F" unicode="F" horiz-adv-x="710" 
d="M206 57h74q11 0 19.5 -8.5t8.5 -19.5q0 -12 -8.5 -20.5t-19.5 -8.5h-206q-12 0 -20.5 8.5t-8.5 20.5q0 11 8.5 19.5t20.5 8.5h74v269h-74q-12 0 -20.5 8.5t-8.5 20.5t8.5 20t20.5 8h74v263h-74q-12 0 -20.5 8.5t-8.5 19.5q0 12 8.5 20.5t20.5 8.5h588q31 0 31 -33v-107
q0 -12 -8.5 -20.5t-19.5 -8.5q-12 0 -20.5 8.5t-8.5 20.5v83h-430v-263h268q12 0 20.5 -8t8.5 -20t-8.5 -20.5t-20.5 -8.5h-268v-269z" />
    <glyph glyph-name="G" unicode="G" horiz-adv-x="693" 
d="M672 667v-112q0 -11 -8.5 -19.5t-20.5 -8.5t-20 8.5t-8 19.5v83h-243q-122 0 -205 -85q-85 -85 -85 -205q0 -121 85 -206t205 -85h243v225h-176q-11 0 -19.5 8.5t-8.5 20.5t8.5 20.5t19.5 8.5h204q12 0 20.5 -8.5t8.5 -20.5v-283q0 -11 -8.5 -19.5t-20.5 -8.5h-271
q-144 0 -246 102q-101 101 -101 246q0 146 101 245q102 102 246 102h271q12 0 20.5 -8t8.5 -20z" />
    <glyph glyph-name="H" unicode="H" horiz-adv-x="826" 
d="M279 642h-74v-262h408v262h-75q-12 0 -20 8.5t-8 20.5t8 20.5t20 8.5h206q12 0 20.5 -8.5t8.5 -20.5t-8.5 -20.5t-20.5 -8.5h-74v-262h75q12 0 20.5 -8.5t8.5 -20.5t-8.5 -20t-20.5 -8h-75v-266h81q12 0 20.5 -8.5t8.5 -20.5t-8.5 -20t-20.5 -8h-206q-11 0 -19.5 8
t-8.5 20t8.5 20.5t19.5 8.5h68v266h-408v-266h74q12 0 20.5 -8.5t8.5 -20.5t-8.5 -20t-20.5 -8h-205q-12 0 -20.5 8t-8.5 20t8.5 20.5t20.5 8.5h74v266h-74q-12 0 -20.5 8t-8.5 20t8.5 20.5t20.5 8.5h74v262h-74q-12 0 -20.5 8.5t-8.5 20.5t8.5 20.5t20.5 8.5h205
q12 0 20.5 -8.5t8.5 -20.5t-8.5 -20.5t-20.5 -8.5z" />
    <glyph glyph-name="I" unicode="I" horiz-adv-x="289" 
d="M247 642h-74v-585h74q12 0 20.5 -8.5t8.5 -20.5t-8.5 -20t-20.5 -8h-206q-12 0 -20.5 8t-8.5 20t8.5 20.5t20.5 8.5h74v585h-74q-12 0 -20.5 8.5t-8.5 20.5t8.5 20.5t20.5 8.5h206q12 0 20.5 -8.5t8.5 -20.5t-8.5 -20.5t-20.5 -8.5z" />
    <glyph glyph-name="J" unicode="J" horiz-adv-x="584" 
d="M8 259q0 12 8.5 20.5t19.5 8.5q12 0 20.5 -8.5t8.5 -20.5q0 -50 18 -90.5t47.5 -65t67 -38t77 -13.5t77 13.5t67 38t47.5 65t18 90.5v383h-156q-12 0 -20 8.5t-8 20.5t8 20.5t20 8.5h185q11 0 19.5 -8.5t8.5 -20.5v-412q0 -84 -39.5 -145.5t-98.5 -89t-128.5 -27.5
t-128.5 27.5t-98.5 89t-39.5 145.5z" />
    <glyph glyph-name="K" unicode="K" horiz-adv-x="808" 
d="M580 57h54l-299 266h-131v-266h74q12 0 20.5 -8.5t8.5 -20.5q0 -11 -8.5 -19.5t-20.5 -8.5h-206q-11 0 -19.5 8.5t-8.5 19.5q0 12 8.5 20.5t19.5 8.5h75v266h-75q-11 0 -19.5 8.5t-8.5 20.5t8.5 20.5t19.5 8.5h75v262h-75q-11 0 -19.5 8t-8.5 20t8.5 20.5t19.5 8.5h206
q12 0 20.5 -8.5t8.5 -20.5t-8.5 -20t-20.5 -8h-74v-262h137l231 262h-85q-12 0 -20.5 8t-8.5 20t8.5 20.5t20.5 8.5h206q12 0 20 -8.5t8 -20.5t-8 -20t-20 -8h-45l-257 -293l329 -293h66q12 0 20 -8.5t8 -20.5q0 -11 -8 -19.5t-20 -8.5h-206q-12 0 -20.5 8.5t-8.5 19.5
q0 12 8.5 20.5t20.5 8.5z" />
    <glyph glyph-name="L" unicode="L" horiz-adv-x="710" 
d="M279 644h-74v-587h432v81q0 12 8.5 20.5t19.5 8.5q12 0 20.5 -8.5t8.5 -20.5v-110q0 -11 -8.5 -19.5t-20.5 -8.5h-592q-11 0 -19.5 8.5t-8.5 19.5q0 12 8.5 20.5t19.5 8.5h75v587h-75q-11 0 -19.5 8t-8.5 20t8.5 20.5t19.5 8.5h206q12 0 20.5 -8.5t8.5 -20.5t-8.5 -20
t-20.5 -8z" />
    <glyph glyph-name="M" unicode="M" horiz-adv-x="879" 
d="M191 682l263 -317l235 315q12 15 27 15h95q11 0 19.5 -8.5t8.5 -19.5q0 -12 -8.5 -20.5t-19.5 -8.5h-68v-581h68q11 0 19.5 -8.5t8.5 -20.5t-8.5 -20t-19.5 -8h-188q-12 0 -20.5 8t-8.5 20t8.5 20.5t20.5 8.5h63v524l-207 -278q-9 -13 -24 -11q-15 0 -22 10l-237 286
v-531h64q12 0 20.5 -8.5t8.5 -20.5t-8.5 -20t-20.5 -8h-186q-12 0 -20.5 8t-8.5 20t8.5 20.5t20.5 8.5h64v581h-64q-12 0 -20.5 8.5t-8.5 20.5q0 11 8.5 19.5t20.5 8.5h90q17 0 27 -13z" />
    <glyph glyph-name="N" unicode="N" horiz-adv-x="856" 
d="M199 685l460 -572v530h-70q-12 0 -20.5 8.5t-8.5 20.5t8.5 20t20.5 8h197q12 0 20.5 -8t8.5 -20t-8.5 -20.5t-20.5 -8.5h-70v-611q0 -21 -20 -27t-32 11l-463 575v-533h70q12 0 20.5 -8.5t8.5 -20.5t-8.5 -20.5t-20.5 -8.5h-198q-11 0 -19.5 8.5t-8.5 20.5t8.5 20.5
t19.5 8.5h71v585h-71q-11 0 -19.5 8.5t-8.5 20.5t8.5 20t19.5 8h97q17 0 29 -15z" />
    <glyph glyph-name="O" unicode="O" horiz-adv-x="805" 
d="M781 351q0 -157 -112 -269t-269 -112q-158 0 -270 112q-111 111 -111 269q0 159 111 270q112 112 270 112q157 0 269 -112t112 -270zM629 122q95 95 95 229q0 136 -95 229q-95 95 -229 95q-136 0 -229 -95q-95 -93 -95 -229q0 -134 95 -229t229 -95q132 0 229 95z" />
    <glyph glyph-name="P" unicode="P" horiz-adv-x="718" 
d="M148 645h-75q-11 0 -19.5 8.5t-8.5 20.5t8.5 20t19.5 8h437q51 0 91 -21t61 -54t30.5 -73t0 -80.5t-30.5 -73.5t-61 -54t-91 -21h-305v-268h74q12 0 20.5 -8.5t8.5 -19.5q0 -12 -8.5 -20.5t-20.5 -8.5h-206q-11 0 -19.5 8.5t-8.5 20.5q0 11 8.5 19.5t19.5 8.5h75v268h-75
q-11 0 -19.5 8.5t-8.5 20.5t8.5 20.5t19.5 8.5h75v262zM205 645v-262h305q36 0 64 14.5t42 37.5t21 51t0 56t-21 51t-42 37.5t-64 14.5h-305z" />
    <glyph glyph-name="Q" unicode="Q" horiz-adv-x="806" 
d="M678 85l56 -56q8 -8 8 -20t-8 -20t-20 -8t-21 8l-58 58q-103 -77 -231 -77q-157 0 -269 112t-112 269q0 158 112 270t269 112q158 0 270 -112t112 -270q0 -153 -108 -266zM594 88l-75 75q-8 8 -8 20t8 21q8 8 20 8t20 -8l78 -78q91 93 91 225q0 135 -94 229
q-95 95 -230 95q-134 0 -229 -95t-95 -229q0 -132 95 -229q97 -95 229 -95q103 0 190 61z" />
    <glyph glyph-name="R" unicode="R" horiz-adv-x="797" 
d="M148 643h-74q-12 0 -20.5 8.5t-8.5 20.5t8.5 20t20.5 8h437q51 0 91 -20.5t61 -54t30.5 -73.5t0 -79.5t-30.5 -73t-61 -54t-91 -20.5h-33l190 -267h77q11 0 19.5 -8.5t8.5 -20.5t-8.5 -20.5t-19.5 -8.5h-206q-12 0 -20.5 8.5t-8.5 20.5t8.5 20.5t20.5 8.5h59l-190 267
h-203v-268h75q12 0 20 -8.5t8 -19.5q0 -12 -8 -20.5t-20 -8.5h-206q-12 0 -20.5 8.5t-8.5 20.5q0 11 8.5 19.5t20.5 8.5h74v268h-74q-12 0 -20.5 8.5t-8.5 20.5t8.5 20.5t20.5 8.5h74v260zM205 643v-260h306q61 0 95.5 40.5t34.5 89.5t-34.5 89.5t-95.5 40.5h-306z" />
    <glyph glyph-name="S" unicode="S" horiz-adv-x="782" 
d="M235 378h332q59 0 102.5 -28t63 -70t20 -91t-19 -91t-63.5 -70t-103 -28h-339q-81 0 -138 48t-57 128q0 12 8.5 20t19.5 8q12 0 20.5 -8t8.5 -20q0 -56 40 -87.5t98 -31.5h339q36 0 64 14.5t42.5 38t21 51.5t-0.5 56t-21.5 51.5t-42.5 38t-63 14.5h-332q-44 0 -80.5 16.5
t-58.5 43t-34.5 60.5t-12.5 69.5t12 69.5t34 60.5t58.5 43t81.5 16.5h269q86 0 132 -50v31q0 17 14 24.5t28.5 0t14.5 -24.5v-148q0 -12 -8.5 -20.5t-20.5 -8.5q-11 0 -19.5 8.5t-8.5 20.5q0 49 -34 78q-37 32 -98 32h-269q-49 0 -82.5 -27.5t-41.5 -66.5t0 -77.5t41.5 -66
t82.5 -27.5z" />
    <glyph glyph-name="T" unicode="T" horiz-adv-x="678" 
d="M665 671v-113q0 -12 -8.5 -20.5t-20.5 -8.5t-20.5 8.5t-8.5 20.5v85h-242v-586h74q12 0 20 -8.5t8 -19.5q0 -12 -8 -20.5t-20 -8.5h-206q-12 0 -20.5 8.5t-8.5 20.5q0 11 8.5 19.5t20.5 8.5h74v586h-243v-85q0 -12 -8 -20.5t-20 -8.5t-20.5 8.5t-8.5 20.5v113
q0 12 8.5 20.5t20.5 8.5h600q12 0 20.5 -8.5t8.5 -20.5z" />
    <glyph glyph-name="U" unicode="U" horiz-adv-x="865" 
d="M77 702h206q12 0 20 -8.5t8 -19.5q0 -12 -8 -20.5t-20 -8.5h-78v-457q0 -54 38.5 -92.5t93.5 -38.5h188q55 0 93.5 38.5t38.5 92.5v457h-70q-12 0 -20.5 8.5t-8.5 20.5q0 11 8.5 19.5t20.5 8.5h206q12 0 20 -8.5t8 -19.5q0 -12 -8 -20.5t-20 -8.5h-79v-457
q0 -78 -55.5 -133t-133.5 -55h-188q-79 0 -134 55t-55 133v457h-71q-12 0 -20.5 8.5t-8.5 20.5q0 11 8.5 19.5t20.5 8.5z" />
    <glyph glyph-name="V" unicode="V" horiz-adv-x="807" 
d="M774 642h-61l-277 -638q-7 -18 -27 -18t-28 17l-294 639h-56q-12 0 -20.5 9t-8.5 20q0 13 8.5 21.5t20.5 8.5h172q12 0 20 -8.5t8 -21.5q0 -12 -8 -20.5t-20 -8.5h-53l258 -560l242 560h-48q-11 0 -19.5 9t-8.5 20q0 13 8.5 21.5t19.5 8.5h172q12 0 20.5 -8.5t8.5 -21.5
q0 -11 -8.5 -20t-20.5 -9z" />
    <glyph glyph-name="W" unicode="W" horiz-adv-x="1003" 
d="M31 700h188q11 0 19.5 -8.5t8.5 -21.5q0 -11 -8.5 -19.5t-19.5 -8.5h-56l155 -523l160 547q7 24 28 24t28 -24l159 -545l150 521h-64q-11 0 -19.5 8.5t-8.5 19.5q0 13 8.5 21.5t19.5 8.5h188q12 0 20.5 -8.5t8.5 -21.5q0 -11 -8.5 -19.5t-20.5 -8.5h-63l-183 -630
q-6 -23 -27.5 -23t-27.5 23l-160 546l-160 -548q-6 -22 -28 -21t-27 23l-189 630h-71q-12 0 -20.5 8.5t-8.5 19.5q0 13 8.5 21.5t20.5 8.5z" />
    <glyph glyph-name="X" unicode="X" horiz-adv-x="710" 
d="M610 57h64q12 0 20.5 -8.5t8.5 -20.5t-8.5 -20t-20.5 -8h-78q-16 0 -24 13l-216 291l-188 -247h67q12 0 20 -8.5t8 -20.5t-8 -20t-20 -8h-201q-12 0 -20.5 8t-8.5 20t8.5 20.5t20.5 8.5h62l224 295l-213 288h-69q-12 0 -20 8t-8 20t8 20.5t20 8.5h82q15 0 24 -12
l212 -286l182 241h-63q-11 0 -19.5 8t-8.5 20t8.5 20.5t19.5 8.5h202q11 0 19.5 -8.5t8.5 -20.5t-8.5 -20t-19.5 -8h-67l-218 -288z" />
    <glyph glyph-name="Y" unicode="Y" horiz-adv-x="724" 
d="M333 59v257l-266 322h-39q-12 0 -20.5 8.5t-8.5 20.5t8.5 20t20.5 8h168q12 0 20.5 -8t8.5 -20t-8.5 -20.5t-20.5 -8.5h-55l219 -265l213 265h-48q-12 0 -20.5 8.5t-8.5 20.5t8.5 20t20.5 8h168q12 0 20.5 -8t8.5 -20t-8.5 -20.5t-20.5 -8.5h-46l-258 -319l1 -260h58
q12 0 20.5 -8t8.5 -20t-8.5 -20.5t-20.5 -8.5h-168q-12 0 -20 8.5t-8 20.5t8 20t20 8h53z" />
    <glyph glyph-name="Z" unicode="Z" horiz-adv-x="706" 
d="M674 645l-270 -283h87q12 0 20 -8.5t8 -19.5q0 -12 -8 -21t-20 -9h-143l-237 -246h524v79q0 18 14.5 26t28.5 0t14 -26v-108q0 -12 -8 -20.5t-20 -8.5h-620q-12 0 -20.5 8.5t-8.5 20.5q0 14 10 22l244 253h-110q-12 0 -20 9t-8 21q0 11 8 19.5t20 8.5h165l265 276h-488
v-86q0 -12 -8 -20.5t-20 -8.5t-20 8.5t-8 20.5v115q0 12 8 20.5t20 8.5h583q20 0 26.5 -19t-8.5 -32z" />
    <glyph glyph-name="grave" unicode="`" horiz-adv-x="197" 
d="M85 826l70 -75q19 -21 -0.5 -39t-40.5 2l-72 69q-15 15 -10 32.5t21 21t32 -10.5z" />
    <glyph glyph-name="a" unicode="a" horiz-adv-x="817" 
d="M680 292q12 0 20.5 -8.5t8.5 -19.5q0 -13 -8.5 -21.5t-20.5 -8.5h-44l79 -176h68q12 0 20.5 -8.5t8.5 -20.5t-8.5 -20.5t-20.5 -8.5h-192q-12 0 -20.5 8.5t-8.5 20.5t8.5 20.5t20.5 8.5h61l-79 176h-333l-79 -176h62q11 0 19.5 -8.5t8.5 -20.5t-8.5 -20.5t-19.5 -8.5
h-193q-12 0 -20.5 8.5t-8.5 20.5t8.5 20.5t20.5 8.5h68l79 176h-44q-12 0 -20.5 8.5t-8.5 21.5q0 11 8.5 19.5t20.5 8.5h70l158 352h-50q-12 0 -20.5 8.5t-8.5 19.5q0 12 8.5 20.5t20.5 8.5h191q12 0 20.5 -8.5t8.5 -20.5q0 -11 -8.5 -19.5t-20.5 -8.5h-50l158 -352h70z
M406 606l-140 -314h281z" />
    <glyph glyph-name="b" unicode="b" horiz-adv-x="745" 
d="M148 640h-74q-12 0 -20.5 8.5t-8.5 19.5q0 12 8.5 20.5t20.5 8.5h430q78 0 133 -55t55 -133q0 -96 -76 -151q48 -24 76.5 -69.5t28.5 -99.5q0 -79 -56 -133q-56 -56 -133 -56h-355h-103q-12 0 -20.5 8.5t-8.5 20.5t8.5 20.5t20.5 8.5h74v262h-74q-12 0 -20.5 8.5
t-8.5 20.5t8.5 20t20.5 8h74v263zM206 320v-262h326q55 0 93 38t38 93q0 54 -38 92.5t-93 38.5h-28h-298zM206 640v-263h298q54 0 92.5 38.5t38.5 93.5q0 54 -38.5 92.5t-92.5 38.5h-298z" />
    <glyph glyph-name="c" unicode="c" horiz-adv-x="686" 
d="M361 58h271q11 0 19.5 -8.5t8.5 -20.5t-8.5 -20.5t-19.5 -8.5h-271q-83 0 -149.5 30t-108 79t-63.5 111.5t-22 127.5t22 127.5t63.5 111.5t108 79t149.5 30h271q11 0 19.5 -8.5t8.5 -20.5v-111q0 -12 -8.5 -20.5t-19.5 -8.5q-12 0 -20.5 8.5t-8.5 20.5v83h-242
q-69 0 -125 -25t-90.5 -66t-53 -93t-18.5 -106.5t18.5 -106.5t53 -93t90.5 -66t125 -25z" />
    <glyph glyph-name="d" unicode="d" horiz-adv-x="740" 
d="M151 639h-79q-11 0 -19.5 8t-8.5 20t8.5 20.5t19.5 8.5h297q83 0 150 -30t108 -79t63.5 -111.5t22.5 -127.5t-22.5 -127.5t-63.5 -111.5t-108 -79t-150 -30h-297q-11 0 -19.5 8.5t-8.5 20.5t8.5 20.5t19.5 8.5h79v581zM208 58h161q91 0 158.5 43t97.5 107.5t30 140
t-30 140t-97.5 107.5t-158.5 43h-161v-581z" />
    <glyph glyph-name="e" unicode="e" horiz-adv-x="725" 
d="M614 642h-409v-262h268q12 0 20.5 -8.5t8.5 -20.5t-8.5 -20t-20.5 -8h-268v-266h436v77q0 11 8.5 19.5t20.5 8.5t20 -8.5t8 -19.5v-102q0 -13 -10.5 -22.5t-23.5 -9.5h-591q-11 0 -19.5 8t-8.5 20t8.5 20.5t19.5 8.5h75v266h-75q-11 0 -19.5 8t-8.5 20t8.5 20.5t19.5 8.5
h75v262h-75q-11 0 -19.5 8.5t-8.5 20.5t8.5 20.5t19.5 8.5h567q13 0 22 -8t9 -21v-112q0 -12 -8.5 -20t-19.5 -8q-12 0 -20.5 8t-8.5 20v83z" />
    <glyph glyph-name="f" unicode="f" horiz-adv-x="711" 
d="M206 57h74q11 0 19.5 -8.5t8.5 -19.5q0 -12 -8.5 -20.5t-19.5 -8.5h-206q-12 0 -20.5 8.5t-8.5 20.5q0 11 8.5 19.5t20.5 8.5h74v269h-74q-12 0 -20.5 8.5t-8.5 20.5t8.5 20t20.5 8h74v263h-74q-12 0 -20.5 8.5t-8.5 19.5q0 12 8.5 20.5t20.5 8.5h588q31 0 31 -33v-107
q0 -12 -8.5 -20.5t-19.5 -8.5q-12 0 -20.5 8.5t-8.5 20.5v83h-430v-263h268q12 0 20.5 -8t8.5 -20t-8.5 -20.5t-20.5 -8.5h-268v-269z" />
    <glyph glyph-name="g" unicode="g" horiz-adv-x="692" 
d="M673 672v-113q0 -11 -8.5 -19.5t-20.5 -8.5t-20 8.5t-8 19.5v84h-243q-121 0 -205 -86q-85 -85 -85 -207t85 -207q86 -86 205 -86h243v227h-176q-11 0 -19.5 8.5t-8.5 20.5t8.5 20.5t19.5 8.5h204q12 0 20.5 -8.5t8.5 -20.5v-285q0 -11 -8.5 -19.5t-20.5 -8.5h-271
q-145 0 -246 103q-101 101 -101 247q0 148 101 247q101 103 246 103h271q12 0 20.5 -8t8.5 -20z" />
    <glyph glyph-name="h" unicode="h" horiz-adv-x="827" 
d="M279 642h-74v-262h408v262h-75q-12 0 -20 8.5t-8 20.5t8 20.5t20 8.5h206q12 0 20.5 -8.5t8.5 -20.5t-8.5 -20.5t-20.5 -8.5h-74v-262h75q12 0 20.5 -8.5t8.5 -20.5t-8.5 -20t-20.5 -8h-75v-266h81q12 0 20.5 -8.5t8.5 -20.5t-8.5 -20t-20.5 -8h-206q-11 0 -19.5 8
t-8.5 20t8.5 20.5t19.5 8.5h68v266h-408v-266h74q12 0 20.5 -8.5t8.5 -20.5t-8.5 -20t-20.5 -8h-205q-12 0 -20.5 8t-8.5 20t8.5 20.5t20.5 8.5h74v266h-74q-12 0 -20.5 8t-8.5 20t8.5 20.5t20.5 8.5h74v262h-74q-12 0 -20.5 8.5t-8.5 20.5t8.5 20.5t20.5 8.5h205
q12 0 20.5 -8.5t8.5 -20.5t-8.5 -20.5t-20.5 -8.5z" />
    <glyph glyph-name="i" unicode="i" horiz-adv-x="309" 
d="M257 642h-74v-585h74q12 0 20.5 -8.5t8.5 -20.5t-8.5 -20t-20.5 -8h-206q-12 0 -20.5 8t-8.5 20t8.5 20.5t20.5 8.5h74v585h-74q-12 0 -20.5 8.5t-8.5 20.5t8.5 20.5t20.5 8.5h206q12 0 20.5 -8.5t8.5 -20.5t-8.5 -20.5t-20.5 -8.5z" />
    <glyph glyph-name="j" unicode="j" horiz-adv-x="580" 
d="M5 259q0 12 8.5 20.5t19.5 8.5q12 0 20.5 -8.5t8.5 -20.5q0 -50 18 -90.5t47.5 -65t67 -38t77 -13.5t77 13.5t67 38t47.5 65t18 90.5v383h-156q-12 0 -20 8.5t-8 20.5t8 20.5t20 8.5h185q11 0 19.5 -8.5t8.5 -20.5v-412q0 -84 -39.5 -145.5t-98.5 -89t-128.5 -27.5
t-128.5 27.5t-98.5 89t-39.5 145.5z" />
    <glyph glyph-name="k" unicode="k" horiz-adv-x="806" 
d="M581 57h54l-299 266h-131v-266h74q12 0 20.5 -8.5t8.5 -20.5q0 -11 -8.5 -19.5t-20.5 -8.5h-206q-11 0 -19.5 8.5t-8.5 19.5q0 12 8.5 20.5t19.5 8.5h75v266h-75q-11 0 -19.5 8.5t-8.5 20.5t8.5 20.5t19.5 8.5h75v263h-75q-11 0 -19.5 8t-8.5 20t8.5 20.5t19.5 8.5h206
q12 0 20.5 -8.5t8.5 -20.5t-8.5 -20t-20.5 -8h-74v-263h137l231 263h-85q-12 0 -20.5 8t-8.5 20t8.5 20.5t20.5 8.5h206q12 0 20 -8.5t8 -20.5t-8 -20t-20 -8h-45l-257 -294l329 -293h66q12 0 20 -8.5t8 -20.5q0 -11 -8 -19.5t-20 -8.5h-206q-12 0 -20.5 8.5t-8.5 19.5
q0 12 8.5 20.5t20.5 8.5z" />
    <glyph glyph-name="l" unicode="l" horiz-adv-x="711" 
d="M279 644h-74v-587h432v81q0 12 8.5 20.5t19.5 8.5q12 0 20.5 -8.5t8.5 -20.5v-110q0 -11 -8.5 -19.5t-20.5 -8.5h-592q-11 0 -19.5 8.5t-8.5 19.5q0 12 8.5 20.5t19.5 8.5h75v587h-75q-11 0 -19.5 8t-8.5 20t8.5 20.5t19.5 8.5h206q12 0 20.5 -8.5t8.5 -20.5t-8.5 -20
t-20.5 -8z" />
    <glyph glyph-name="m" unicode="m" horiz-adv-x="882" 
d="M192 690l264 -321l236 319q12 15 27 15h95q11 0 19.5 -8.5t8.5 -19.5q0 -13 -8.5 -21.5t-19.5 -8.5h-68v-587h68q11 0 19.5 -8.5t8.5 -21.5q0 -12 -8.5 -20t-19.5 -8h-189q-12 0 -20.5 8t-8.5 20q0 13 8.5 21.5t20.5 8.5h64v530l-208 -282q-9 -13 -24 -11q-15 0 -22 10
l-238 290v-537h65q12 0 20.5 -8.5t8.5 -21.5q0 -12 -8.5 -20t-20.5 -8h-187q-12 0 -20.5 8t-8.5 20q0 13 8.5 21.5t20.5 8.5h64v587h-64q-12 0 -20.5 8.5t-8.5 21.5q0 11 8.5 19.5t20.5 8.5h90q17 0 27 -13z" />
    <glyph glyph-name="n" unicode="n" horiz-adv-x="857" 
d="M199 685l460 -572v530h-70q-12 0 -20.5 8.5t-8.5 20.5t8.5 20t20.5 8h197q12 0 20.5 -8t8.5 -20t-8.5 -20.5t-20.5 -8.5h-70v-611q0 -21 -20 -27t-32 11l-463 575v-533h70q12 0 20.5 -8.5t8.5 -20.5t-8.5 -20.5t-20.5 -8.5h-198q-11 0 -19.5 8.5t-8.5 20.5t8.5 20.5
t19.5 8.5h71v585h-71q-11 0 -19.5 8.5t-8.5 20.5t8.5 20t19.5 8h97q17 0 29 -15z" />
    <glyph glyph-name="o" unicode="o" horiz-adv-x="819" 
d="M790 351q0 -157 -112 -269t-269 -112q-158 0 -270 112q-111 111 -111 269q0 159 111 270q112 112 270 112q157 0 269 -112t112 -270zM638 122q95 95 95 229q0 136 -95 229q-95 95 -229 95q-136 0 -229 -95q-95 -93 -95 -229q0 -134 95 -229t229 -95q132 0 229 95z" />
    <glyph glyph-name="p" unicode="p" horiz-adv-x="723" 
d="M148 645h-75q-11 0 -19.5 8.5t-8.5 20.5t8.5 20t19.5 8h437q51 0 91 -21t61 -54t30.5 -73t0 -80.5t-30.5 -73.5t-61 -54t-91 -21h-305v-268h74q12 0 20.5 -8.5t8.5 -19.5q0 -12 -8.5 -20.5t-20.5 -8.5h-206q-11 0 -19.5 8.5t-8.5 20.5q0 11 8.5 19.5t19.5 8.5h75v268h-75
q-11 0 -19.5 8.5t-8.5 20.5t8.5 20.5t19.5 8.5h75v262zM205 645v-262h305q36 0 64 14.5t42 37.5t21 51t0 56t-21 51t-42 37.5t-64 14.5h-305z" />
    <glyph glyph-name="q" unicode="q" horiz-adv-x="809" 
d="M675 85l56 -56q8 -8 8 -20t-8 -20t-20 -8t-21 8l-58 58q-103 -77 -231 -77q-157 0 -269 112t-112 269q0 158 112 270t269 112q158 0 270 -112t112 -270q0 -153 -108 -266zM591 88l-75 75q-8 8 -8 20t8 21q8 8 20 8t20 -8l78 -78q91 93 91 225q0 135 -94 229
q-95 95 -230 95q-134 0 -229 -95t-95 -229q0 -132 95 -229q97 -95 229 -95q103 0 190 61z" />
    <glyph glyph-name="r" unicode="r" horiz-adv-x="800" 
d="M148 643h-74q-12 0 -20.5 8.5t-8.5 20.5t8.5 20t20.5 8h437q51 0 91 -20.5t61 -54t30.5 -73.5t0 -79.5t-30.5 -73t-61 -54t-91 -20.5h-33l190 -267h77q11 0 19.5 -8.5t8.5 -20.5t-8.5 -20.5t-19.5 -8.5h-206q-12 0 -20.5 8.5t-8.5 20.5t8.5 20.5t20.5 8.5h59l-190 267
h-203v-268h75q12 0 20 -8.5t8 -19.5q0 -12 -8 -20.5t-20 -8.5h-206q-12 0 -20.5 8.5t-8.5 20.5q0 11 8.5 19.5t20.5 8.5h74v268h-74q-12 0 -20.5 8.5t-8.5 20.5t8.5 20.5t20.5 8.5h74v260zM205 643v-260h306q61 0 95.5 40.5t34.5 89.5t-34.5 89.5t-95.5 40.5h-306z" />
    <glyph glyph-name="s" unicode="s" horiz-adv-x="768" 
d="M224 378h332q59 0 102.5 -28t63 -70t20 -91t-19 -91t-63.5 -70t-103 -28h-339q-81 0 -138 48t-57 128q0 12 8.5 20t19.5 8q12 0 20.5 -8t8.5 -20q0 -56 40 -87.5t98 -31.5h339q36 0 64 14.5t42.5 38t21 51.5t-0.5 56t-21.5 51.5t-42.5 38t-63 14.5h-332q-44 0 -80.5 16.5
t-58.5 43t-34.5 60.5t-12.5 69.5t12 69.5t34 60.5t58.5 43t81.5 16.5h269q86 0 132 -50v31q0 17 14.5 24.5t28.5 0t14 -24.5v-148q0 -12 -8.5 -20.5t-20.5 -8.5q-11 0 -19.5 8.5t-8.5 20.5q0 49 -34 78q-37 32 -98 32h-269q-49 0 -82.5 -27.5t-41.5 -66.5t0 -77.5t41.5 -66
t82.5 -27.5z" />
    <glyph glyph-name="t" unicode="t" horiz-adv-x="679" 
d="M665 671v-113q0 -12 -8.5 -20.5t-20.5 -8.5t-20.5 8.5t-8.5 20.5v85h-242v-586h74q12 0 20 -8.5t8 -19.5q0 -12 -8 -20.5t-20 -8.5h-206q-12 0 -20.5 8.5t-8.5 20.5q0 11 8.5 19.5t20.5 8.5h74v586h-243v-85q0 -12 -8 -20.5t-20 -8.5t-20.5 8.5t-8.5 20.5v113
q0 12 8.5 20.5t20.5 8.5h600q12 0 20.5 -8.5t8.5 -20.5z" />
    <glyph glyph-name="u" unicode="u" horiz-adv-x="861" 
d="M73 702h206q12 0 20 -8.5t8 -19.5q0 -12 -8 -20.5t-20 -8.5h-78v-457q0 -54 38.5 -92.5t93.5 -38.5h188q55 0 93.5 38.5t38.5 92.5v457h-70q-12 0 -20.5 8.5t-8.5 20.5q0 11 8.5 19.5t20.5 8.5h206q12 0 20 -8.5t8 -19.5q0 -12 -8 -20.5t-20 -8.5h-79v-457
q0 -78 -55.5 -133t-133.5 -55h-188q-79 0 -134 55t-55 133v457h-71q-12 0 -20.5 8.5t-8.5 20.5q0 11 8.5 19.5t20.5 8.5z" />
    <glyph glyph-name="v" unicode="v" horiz-adv-x="809" 
d="M775 642h-61l-277 -638q-7 -18 -27 -18t-28 17l-294 639h-56q-12 0 -20.5 9t-8.5 20q0 13 8.5 21.5t20.5 8.5h172q12 0 20 -8.5t8 -21.5q0 -12 -8 -20.5t-20 -8.5h-53l258 -560l242 560h-48q-11 0 -19.5 9t-8.5 20q0 13 8.5 21.5t19.5 8.5h172q12 0 20.5 -8.5t8.5 -21.5
q0 -11 -8.5 -20t-20.5 -9z" />
    <glyph glyph-name="w" unicode="w" horiz-adv-x="1005" 
d="M31 700h188q11 0 19.5 -8.5t8.5 -21.5q0 -11 -8.5 -19.5t-19.5 -8.5h-56l155 -523l160 547q7 24 28 24t28 -24l159 -545l150 521h-64q-11 0 -19.5 8.5t-8.5 19.5q0 13 8.5 21.5t19.5 8.5h188q12 0 20.5 -8.5t8.5 -21.5q0 -11 -8.5 -19.5t-20.5 -8.5h-63l-183 -630
q-6 -23 -27.5 -23t-27.5 23l-160 546l-160 -548q-6 -22 -28 -21t-27 23l-189 630h-71q-12 0 -20.5 8.5t-8.5 19.5q0 13 8.5 21.5t20.5 8.5z" />
    <glyph glyph-name="x" unicode="x" horiz-adv-x="713" 
d="M612 57h64q12 0 20.5 -8.5t8.5 -20.5t-8.5 -20t-20.5 -8h-78q-16 0 -24 13l-216 292l-189 -248h67q12 0 20 -8.5t8 -20.5t-8 -20t-20 -8h-201q-12 0 -20.5 8t-8.5 20t8.5 20.5t20.5 8.5h62l224 297l-213 289h-69q-12 0 -20 8t-8 20t8 20.5t20 8.5h82q15 0 24 -12
l213 -287l182 242h-63q-11 0 -19.5 8t-8.5 20t8.5 20.5t19.5 8.5h202q11 0 19.5 -8.5t8.5 -20.5t-8.5 -20t-19.5 -8h-67l-218 -289z" />
    <glyph glyph-name="y" unicode="y" horiz-adv-x="727" 
d="M334 59v259l-266 325h-39q-12 0 -20.5 8.5t-8.5 20.5t8.5 20t20.5 8h168q12 0 20.5 -8t8.5 -20t-8.5 -20.5t-20.5 -8.5h-55l219 -267l214 267h-48q-12 0 -20.5 8.5t-8.5 20.5t8.5 20t20.5 8h168q12 0 20.5 -8t8.5 -20t-8.5 -20.5t-20.5 -8.5h-46l-258 -322l1 -262h58
q12 0 20.5 -8t8.5 -20t-8.5 -20.5t-20.5 -8.5h-169q-12 0 -20 8.5t-8 20.5t8 20t20 8h53z" />
    <glyph glyph-name="z" unicode="z" horiz-adv-x="716" 
d="M684 645l-270 -283h87q12 0 20 -8.5t8 -19.5q0 -12 -8 -21t-20 -9h-143l-237 -246h524v79q0 18 14.5 26t28.5 0t14 -26v-108q0 -12 -8 -20.5t-20 -8.5h-620q-12 0 -20.5 8.5t-8.5 20.5q0 14 10 22l244 253h-110q-12 0 -20 9t-8 21q0 11 8 19.5t20 8.5h165l265 276h-488
v-86q0 -12 -8 -20.5t-20 -8.5t-20 8.5t-8 20.5v115q0 12 8 20.5t20 8.5h583q20 0 26.5 -19t-8.5 -32z" />
    <glyph glyph-name="dieresis" unicode="&#xa8;" horiz-adv-x="468" 
d="M91 694h-1q-16 0 -27 11.5t-11 27.5t11 27.5t27 11.5h1q17 0 28 -11t11 -28t-11 -28t-28 -11zM381 694h-1q-16 0 -27 11.5t-11 27.5t11 27.5t27 11.5h1q17 0 28 -11t11 -28t-11 -28t-28 -11z" />
    <glyph glyph-name="acute" unicode="&#xb4;" horiz-adv-x="335" 
d="M119 752l70 75q15 16 32 10.5t20.5 -21.5t-9.5 -32l-72 -69q-21 -20 -40.5 -2t-0.5 39z" />
    <glyph glyph-name="cedilla" unicode="&#xb8;" horiz-adv-x="382" 
d="M165 0h53l-12 -45q52 0 80.5 -31t17.5 -75q-10 -39 -42 -58t-79 -17q-78 3 -109 68q-9 18 9.5 28.5t30.5 -7.5q23 -40 76 -40q54 0 63 38q6 27 -22.5 44t-66.5 7l-20 21z" />
    <glyph glyph-name="Agrave" unicode="&#xc0;" 
d="M679 292h-70l-158 352h50q12 0 20.5 8.5t8.5 19.5q0 12 -8.5 20.5t-20.5 8.5h-191q-12 0 -20.5 -8.5t-8.5 -20.5q0 -11 8.5 -19.5t20.5 -8.5h50l-158 -352h-70q-12 0 -20.5 -8.5t-8.5 -19.5q0 -13 8.5 -21.5t20.5 -8.5h44l-79 -176h-68q-12 0 -20.5 -8.5t-8.5 -20.5
t8.5 -20.5t20.5 -8.5h193q11 0 19.5 8.5t8.5 20.5t-8.5 20.5t-19.5 8.5h-62l79 176h333l79 -176h-61q-12 0 -20.5 -8.5t-8.5 -20.5t8.5 -20.5t20.5 -8.5h192q12 0 20.5 8.5t8.5 20.5t-8.5 20.5t-20.5 8.5h-68l-79 176h44q12 0 20.5 8.5t8.5 21.5q0 11 -8.5 19.5t-20.5 8.5z
M405 606l141 -314h-281zM355 879l70 -75q19 -21 -0.5 -39t-40.5 2l-72 69q-15 15 -10 32.5t21 21t32 -10.5z" />
    <glyph glyph-name="Aacute" unicode="&#xc1;" 
d="M679 292q12 0 20.5 -8.5t8.5 -19.5q0 -13 -8.5 -21.5t-20.5 -8.5h-44l79 -176h68q12 0 20.5 -8.5t8.5 -20.5t-8.5 -20.5t-20.5 -8.5h-192q-12 0 -20.5 8.5t-8.5 20.5t8.5 20.5t20.5 8.5h61l-79 176h-333l-79 -176h62q11 0 19.5 -8.5t8.5 -20.5t-8.5 -20.5t-19.5 -8.5
h-193q-12 0 -20.5 8.5t-8.5 20.5t8.5 20.5t20.5 8.5h68l79 176h-44q-12 0 -20.5 8.5t-8.5 21.5q0 11 8.5 19.5t20.5 8.5h70l158 352h-50q-12 0 -20.5 8.5t-8.5 19.5q0 12 8.5 20.5t20.5 8.5h191q12 0 20.5 -8.5t8.5 -20.5q0 -11 -8.5 -19.5t-20.5 -8.5h-50l158 -352h70z
M405 606l-140 -314h281zM383 805l70 75q15 16 32 10.5t20.5 -21.5t-9.5 -32l-72 -69q-21 -20 -40.5 -2t-0.5 39z" />
    <glyph glyph-name="Acircumflex" unicode="&#xc2;" 
d="M679 292q12 0 20.5 -8.5t8.5 -19.5q0 -13 -8.5 -21.5t-20.5 -8.5h-44l79 -176h68q12 0 20.5 -8.5t8.5 -20.5t-8.5 -20.5t-20.5 -8.5h-192q-12 0 -20.5 8.5t-8.5 20.5t8.5 20.5t20.5 8.5h61l-79 176h-333l-79 -176h62q11 0 19.5 -8.5t8.5 -20.5t-8.5 -20.5t-19.5 -8.5
h-193q-12 0 -20.5 8.5t-8.5 20.5t8.5 20.5t20.5 8.5h68l79 176h-44q-12 0 -20.5 8.5t-8.5 21.5q0 11 8.5 19.5t20.5 8.5h70l158 352h-50q-12 0 -20.5 8.5t-8.5 19.5q0 12 8.5 20.5t20.5 8.5h191q12 0 20.5 -8.5t8.5 -20.5q0 -11 -8.5 -19.5t-20.5 -8.5h-50l158 -352h70z
M405 606l-140 -314h281zM433 870l84 -59q21 -18 6.5 -37t-36.5 -6l-79 48l-81 -51q-24 -15 -39 6t9 38l88 61q23 18 48 0z" />
    <glyph glyph-name="Atilde" unicode="&#xc3;" 
d="M679 292q12 0 20.5 -8.5t8.5 -19.5q0 -13 -8.5 -21.5t-20.5 -8.5h-44l79 -176h68q12 0 20.5 -8.5t8.5 -20.5t-8.5 -20.5t-20.5 -8.5h-192q-12 0 -20.5 8.5t-8.5 20.5t8.5 20.5t20.5 8.5h61l-79 176h-333l-79 -176h62q11 0 19.5 -8.5t8.5 -20.5t-8.5 -20.5t-19.5 -8.5
h-193q-12 0 -20.5 8.5t-8.5 20.5t8.5 20.5t20.5 8.5h68l79 176h-44q-12 0 -20.5 8.5t-8.5 21.5q0 11 8.5 19.5t20.5 8.5h70l158 352h-50q-12 0 -20.5 8.5t-8.5 19.5q0 12 8.5 20.5t20.5 8.5h191q12 0 20.5 -8.5t8.5 -20.5q0 -11 -8.5 -19.5t-20.5 -8.5h-50l158 -352h70z
M405 606l-140 -314h281zM272 800q27 49 68.5 56.5t89.5 -36.5q18 -18 42.5 -16.5t36.5 24.5q7 10 18.5 10t19.5 -9t2 -20q-26 -44 -66 -51t-75 24q-64 59 -97 0q-10 -16 -28.5 -8.5t-10.5 26.5z" />
    <glyph glyph-name="Adieresis" unicode="&#xc4;" 
d="M679 292q12 0 20.5 -8.5t8.5 -19.5q0 -13 -8.5 -21.5t-20.5 -8.5h-44l79 -176h68q12 0 20.5 -8.5t8.5 -20.5t-8.5 -20.5t-20.5 -8.5h-192q-12 0 -20.5 8.5t-8.5 20.5t8.5 20.5t20.5 8.5h61l-79 176h-333l-79 -176h62q11 0 19.5 -8.5t8.5 -20.5t-8.5 -20.5t-19.5 -8.5
h-193q-12 0 -20.5 8.5t-8.5 20.5t8.5 20.5t20.5 8.5h68l79 176h-44q-12 0 -20.5 8.5t-8.5 21.5q0 11 8.5 19.5t20.5 8.5h70l158 352h-50q-12 0 -20.5 8.5t-8.5 19.5q0 12 8.5 20.5t20.5 8.5h191q12 0 20.5 -8.5t8.5 -20.5q0 -11 -8.5 -19.5t-20.5 -8.5h-50l158 -352h70z
M405 606l-140 -314h281zM258 761h-1q-16 0 -27 11.5t-11 27.5t11 27.5t27 11.5h1q16 0 27.5 -11.5t11.5 -27.5t-11.5 -27.5t-27.5 -11.5zM548 761h-1q-16 0 -27 11.5t-11 27.5t11 27.5t27 11.5h1q16 0 27.5 -11.5t11.5 -27.5t-11.5 -27.5t-27.5 -11.5z" />
    <glyph glyph-name="Aring" unicode="&#xc5;" 
d="M679 292q12 0 20.5 -8.5t8.5 -19.5q0 -13 -8.5 -21.5t-20.5 -8.5h-44l79 -176h68q12 0 20.5 -8.5t8.5 -20.5t-8.5 -20.5t-20.5 -8.5h-192q-12 0 -20.5 8.5t-8.5 20.5t8.5 20.5t20.5 8.5h61l-79 176h-333l-79 -176h62q11 0 19.5 -8.5t8.5 -20.5t-8.5 -20.5t-19.5 -8.5
h-193q-12 0 -20.5 8.5t-8.5 20.5t8.5 20.5t20.5 8.5h68l79 176h-44q-12 0 -20.5 8.5t-8.5 21.5q0 11 8.5 19.5t20.5 8.5h70l158 352h-50q-12 0 -20.5 8.5t-8.5 19.5q0 12 8.5 20.5t20.5 8.5h191q12 0 20.5 -8.5t8.5 -20.5q0 -11 -8.5 -19.5t-20.5 -8.5h-50l158 -352h70z
M405 606l-140 -314h281zM301 817q0 45 33 70.5t72 25.5t72 -25.5t33 -70.5q0 -44 -33 -69.5t-72 -25.5t-72 25.5t-33 69.5zM404 868q-32 0 -46 -25t-0.5 -50.5t46.5 -25.5q35 0 49.5 25.5t0 50.5t-49.5 25z" />
    <glyph glyph-name="AE" unicode="&#xc6;" horiz-adv-x="1066" 
d="M955 642h-344v-301h203q12 0 20.5 -9t8.5 -21t-8.5 -19.5t-20.5 -7.5h-203v-227h371v77q0 11 8.5 19.5t20.5 8.5t20 -8.5t8 -19.5v-102q0 -13 -10.5 -22.5t-23.5 -9.5h-526q-11 0 -19.5 8t-8.5 20t8.5 20.5t19.5 8.5h75v227h-254l-145 -226h62q11 0 19.5 -8.5t8.5 -20.5
t-8.5 -20.5t-19.5 -8.5h-193q-12 0 -20.5 8.5t-8.5 20.5t8.5 20.5t20.5 8.5h68l145 226h-44q-12 0 -20.5 8t-8.5 21q0 11 8.5 19.5t20.5 8.5h79l192 303h-50q-12 0 -20.5 8.5t-8.5 19.5q0 12 8.5 20.5t20.5 8.5l567 -1q13 0 22 -8t9 -21v-112q0 -12 -8.5 -20t-19.5 -8
q-12 0 -20.5 8t-8.5 20v83zM336 341h218v301h-21z" />
    <glyph glyph-name="Ccedilla" unicode="&#xc7;" horiz-adv-x="686" 
d="M361 58h271q11 0 19.5 -8.5t8.5 -20.5t-8.5 -20.5t-19.5 -8.5h-210l-9 -35q52 0 80.5 -31t17.5 -75q-10 -39 -42 -58t-79 -17q-78 3 -109 68q-9 18 9.5 28.5t30.5 -7.5q23 -40 76 -40q54 0 63 38q6 27 -22.5 44t-66.5 7l-20 21l18 57h-8q-83 0 -149.5 30t-108 79
t-63.5 111.5t-22 127.5t22 127.5t63.5 111.5t108 79t149.5 30h271q11 0 19.5 -8.5t8.5 -20.5v-111q0 -12 -8.5 -20.5t-19.5 -8.5q-12 0 -20.5 8.5t-8.5 20.5v83h-242q-69 0 -125 -25t-90.5 -66t-53 -93t-18.5 -106.5t18.5 -106.5t53 -93t90.5 -66t125 -25z" />
    <glyph glyph-name="Egrave" unicode="&#xc8;" horiz-adv-x="724" 
d="M205 642h409v-83q0 -12 8.5 -20t20.5 -8q11 0 19.5 8t8.5 20v112q0 13 -9 21t-22 8h-567q-11 0 -19.5 -8.5t-8.5 -20.5t8.5 -20.5t19.5 -8.5h75v-262h-75q-11 0 -19.5 -8.5t-8.5 -20.5t8.5 -20t19.5 -8h75v-266h-75q-11 0 -19.5 -8.5t-8.5 -20.5t8.5 -20t19.5 -8h591
q13 0 23.5 9.5t10.5 22.5v102q0 11 -8 19.5t-20 8.5t-20.5 -8.5t-8.5 -19.5v-77h-436v266h268q12 0 20.5 8t8.5 20t-8.5 20.5t-20.5 8.5h-268v262zM368 883l70 -75q19 -21 -0.5 -39t-40.5 2l-72 69q-15 15 -10 32.5t21 21t32 -10.5z" />
    <glyph glyph-name="Eacute" unicode="&#xc9;" horiz-adv-x="724" 
d="M614 642h-409v-262h268q12 0 20.5 -8.5t8.5 -20.5t-8.5 -20t-20.5 -8h-268v-266h436v77q0 11 8.5 19.5t20.5 8.5t20 -8.5t8 -19.5v-102q0 -13 -10.5 -22.5t-23.5 -9.5h-591q-11 0 -19.5 8t-8.5 20t8.5 20.5t19.5 8.5h75v266h-75q-11 0 -19.5 8t-8.5 20t8.5 20.5t19.5 8.5
h75v262h-75q-11 0 -19.5 8.5t-8.5 20.5t8.5 20.5t19.5 8.5h567q13 0 22 -8t9 -21v-112q0 -12 -8.5 -20t-19.5 -8q-12 0 -20.5 8t-8.5 20v83zM371 805l70 75q15 16 32 10.5t20.5 -21.5t-9.5 -32l-72 -69q-21 -20 -40.5 -2t-0.5 39z" />
    <glyph glyph-name="Ecircumflex" unicode="&#xca;" horiz-adv-x="724" 
d="M614 642h-409v-262h268q12 0 20.5 -8.5t8.5 -20.5t-8.5 -20t-20.5 -8h-268v-266h436v77q0 11 8.5 19.5t20.5 8.5t20 -8.5t8 -19.5v-102q0 -13 -10.5 -22.5t-23.5 -9.5h-591q-11 0 -19.5 8t-8.5 20t8.5 20.5t19.5 8.5h75v266h-75q-11 0 -19.5 8t-8.5 20t8.5 20.5t19.5 8.5
h75v262h-75q-11 0 -19.5 8.5t-8.5 20.5t8.5 20.5t19.5 8.5h567q13 0 22 -8t9 -21v-112q0 -12 -8.5 -20t-19.5 -8q-12 0 -20.5 8t-8.5 20v83zM422 870l84 -59q21 -18 6.5 -37t-36.5 -6l-79 48l-81 -51q-24 -15 -39 6t9 38l88 61q23 18 48 0z" />
    <glyph glyph-name="Edieresis" unicode="&#xcb;" horiz-adv-x="724" 
d="M614 642h-409v-262h268q12 0 20.5 -8.5t8.5 -20.5t-8.5 -20t-20.5 -8h-268v-266h436v77q0 11 8.5 19.5t20.5 8.5t20 -8.5t8 -19.5v-102q0 -13 -10.5 -22.5t-23.5 -9.5h-591q-11 0 -19.5 8t-8.5 20t8.5 20.5t19.5 8.5h75v266h-75q-11 0 -19.5 8t-8.5 20t8.5 20.5t19.5 8.5
h75v262h-75q-11 0 -19.5 8.5t-8.5 20.5t8.5 20.5t19.5 8.5h567q13 0 22 -8t9 -21v-112q0 -12 -8.5 -20t-19.5 -8q-12 0 -20.5 8t-8.5 20v83zM249 770h-1q-16 0 -27 11.5t-11 27.5t11 27.5t27 11.5h1q17 0 28 -11t11 -28t-11 -28t-28 -11zM539 770h-1q-16 0 -27 11.5
t-11 27.5t11 27.5t27 11.5h1q17 0 28 -11t11 -28t-11 -28t-28 -11z" />
    <glyph glyph-name="Igrave" unicode="&#xcc;" horiz-adv-x="289" 
d="M173 642h74q12 0 20.5 8.5t8.5 20.5t-8.5 20.5t-20.5 8.5h-206q-12 0 -20.5 -8.5t-8.5 -20.5t8.5 -20.5t20.5 -8.5h74v-585h-74q-12 0 -20.5 -8.5t-8.5 -20.5t8.5 -20t20.5 -8h206q12 0 20.5 8t8.5 20t-8.5 20.5t-20.5 8.5h-74v585zM95 883l70 -75q19 -21 -0.5 -39
t-40.5 2l-72 69q-15 15 -10 32.5t21 21t32 -10.5z" />
    <glyph glyph-name="Iacute" unicode="&#xcd;" horiz-adv-x="289" 
d="M247 642h-74v-585h74q12 0 20.5 -8.5t8.5 -20.5t-8.5 -20t-20.5 -8h-206q-12 0 -20.5 8t-8.5 20t8.5 20.5t20.5 8.5h74v585h-74q-12 0 -20.5 8.5t-8.5 20.5t8.5 20.5t20.5 8.5h206q12 0 20.5 -8.5t8.5 -20.5t-8.5 -20.5t-20.5 -8.5zM120 806l70 75q15 16 32 10.5
t20.5 -21.5t-9.5 -32l-72 -69q-21 -20 -40.5 -2t-0.5 39z" />
    <glyph glyph-name="Icircumflex" unicode="&#xce;" horiz-adv-x="289" 
d="M247 642h-74v-585h74q12 0 20.5 -8.5t8.5 -20.5t-8.5 -20t-20.5 -8h-206q-12 0 -20.5 8t-8.5 20t8.5 20.5t20.5 8.5h74v585h-74q-12 0 -20.5 8.5t-8.5 20.5t8.5 20.5t20.5 8.5h206q12 0 20.5 -8.5t8.5 -20.5t-8.5 -20.5t-20.5 -8.5zM171 874l84 -59q21 -18 6.5 -37
t-36.5 -6l-79 48l-81 -51q-24 -15 -39 6t9 38l88 61q23 18 48 0z" />
    <glyph glyph-name="Idieresis" unicode="&#xcf;" horiz-adv-x="289" 
d="M46 764h-1q-16 0 -27 11.5t-11 27.5t11 27.5t27 11.5h1q16 0 27.5 -11t11.5 -28t-11.5 -28t-27.5 -11zM246 764h-1q-16 0 -27 11.5t-11 27.5t11 27.5t27 11.5h1q16 0 27.5 -11t11.5 -28t-11.5 -28t-27.5 -11zM247 642h-74v-585h74q12 0 20.5 -8.5t8.5 -20.5t-8.5 -20
t-20.5 -8h-206q-12 0 -20.5 8t-8.5 20t8.5 20.5t20.5 8.5h74v585h-74q-12 0 -20.5 8.5t-8.5 20.5t8.5 20.5t20.5 8.5h206q12 0 20.5 -8.5t8.5 -20.5t-8.5 -20.5t-20.5 -8.5z" />
    <glyph glyph-name="Eth" unicode="&#xd0;" horiz-adv-x="739" 
d="M151 323h-75q-12 0 -20.5 7.5t-8.5 19.5t8.5 20t20.5 8h75v261h-79q-11 0 -19.5 8t-8.5 20t8.5 20.5t19.5 8.5h297q83 0 150 -30t108 -79t63.5 -111.5t22.5 -127.5t-22.5 -127.5t-63.5 -111.5t-108 -79t-150 -30h-297q-11 0 -19.5 8.5t-8.5 20.5t8.5 20.5t19.5 8.5h79
v265zM208 58h161q91 0 158.5 43t97.5 107.5t30 140t-30 140t-97.5 107.5t-158.5 43h-161v-261h131q12 0 20.5 -8t8.5 -20t-8.5 -19.5t-20.5 -7.5h-131v-265z" />
    <glyph glyph-name="Ntilde" unicode="&#xd1;" horiz-adv-x="856" 
d="M199 685l460 -572v530h-70q-12 0 -20.5 8.5t-8.5 20.5t8.5 20t20.5 8h197q12 0 20.5 -8t8.5 -20t-8.5 -20.5t-20.5 -8.5h-70v-611q0 -21 -20 -27t-32 11l-463 575v-533h70q12 0 20.5 -8.5t8.5 -20.5t-8.5 -20.5t-20.5 -8.5h-198q-11 0 -19.5 8.5t-8.5 20.5t8.5 20.5
t19.5 8.5h71v585h-71q-11 0 -19.5 8.5t-8.5 20.5t8.5 20t19.5 8h97q17 0 29 -15zM284 813q27 49 68.5 56.5t89.5 -36.5q18 -18 42.5 -16.5t36.5 24.5q7 10 18.5 10t19.5 -9t2 -20q-26 -44 -66 -51t-75 24q-64 59 -97 0q-10 -16 -28.5 -8.5t-10.5 26.5z" />
    <glyph glyph-name="Ograve" unicode="&#xd2;" horiz-adv-x="805" 
d="M781 351q0 158 -112 270t-269 112q-158 0 -270 -112q-111 -111 -111 -270q0 -158 111 -269q112 -112 270 -112q157 0 269 112t112 269zM629 122q-97 -95 -229 -95q-134 0 -229 95t-95 229q0 136 95 229q93 95 229 95q134 0 229 -95q95 -93 95 -229q0 -134 -95 -229z
M364 895l70 -75q19 -21 -0.5 -39t-40.5 2l-72 69q-15 15 -10 32.5t21 21t32 -10.5z" />
    <glyph glyph-name="Oacute" unicode="&#xd3;" horiz-adv-x="805" 
d="M781 351q0 -157 -112 -269t-269 -112q-158 0 -270 112q-111 111 -111 269q0 159 111 270q112 112 270 112q157 0 269 -112t112 -270zM629 122q95 95 95 229q0 136 -95 229q-95 95 -229 95q-136 0 -229 -95q-95 -93 -95 -229q0 -134 95 -229t229 -95q132 0 229 95z
M379 825l70 75q15 16 32 10.5t20.5 -21.5t-9.5 -32l-72 -69q-21 -20 -40.5 -2t-0.5 39z" />
    <glyph glyph-name="Ocircumflex" unicode="&#xd4;" horiz-adv-x="805" 
d="M781 351q0 -157 -112 -269t-269 -112q-158 0 -270 112q-111 111 -111 269q0 159 111 270q112 112 270 112q157 0 269 -112t112 -270zM629 122q95 95 95 229q0 136 -95 229q-95 95 -229 95q-136 0 -229 -95q-95 -93 -95 -229q0 -134 95 -229t229 -95q132 0 229 95z
M430 885l84 -59q21 -18 6.5 -37t-36.5 -6l-79 48l-81 -51q-24 -15 -39 6t9 38l88 61q23 18 48 0z" />
    <glyph glyph-name="Otilde" unicode="&#xd5;" horiz-adv-x="805" 
d="M263 813q25 51 65 60t91 -32q20 -17 44.5 -14t34.5 27q5 10 17.5 10.5t20.5 -8.5t3 -20q-24 -46 -63.5 -55t-75.5 21q-68 54 -97 -6q-9 -16 -28 -9.5t-12 26.5zM781 351q0 -157 -112 -269t-269 -112q-158 0 -270 112q-111 111 -111 269q0 159 111 270q112 112 270 112
q157 0 269 -112t112 -270zM629 122q95 95 95 229q0 136 -95 229q-95 95 -229 95q-136 0 -229 -95q-95 -93 -95 -229q0 -134 95 -229t229 -95q132 0 229 95z" />
    <glyph glyph-name="Odieresis" unicode="&#xd6;" horiz-adv-x="805" 
d="M781 351q0 -157 -112 -269t-269 -112q-158 0 -270 112q-111 111 -111 269q0 159 111 270q112 112 270 112q157 0 269 -112t112 -270zM629 122q95 95 95 229q0 136 -95 229q-95 95 -229 95q-136 0 -229 -95q-95 -93 -95 -229q0 -134 95 -229t229 -95q132 0 229 95z
M257 775h-1q-16 0 -27 11.5t-11 27.5t11 27.5t27 11.5h1q17 0 28 -11.5t11 -27.5t-11 -27.5t-28 -11.5zM547 775h-1q-16 0 -27 11.5t-11 27.5t11 27.5t27 11.5h1q17 0 28 -11.5t11 -27.5t-11 -27.5t-28 -11.5z" />
    <glyph glyph-name="Oslash" unicode="&#xd8;" horiz-adv-x="805" 
d="M781 351q0 -157 -112 -269t-269 -112q-95 0 -178 44l-65 -101q-9 -15 -24 -13t-21 15.5t1 28.5l63 98q-29 22 -46 40q-111 111 -111 269q0 159 111 270q112 112 270 112q100 0 189 -51l49 77q9 16 24.5 14t22 -15.5t-0.5 -28.5l-50 -78q20 -15 35 -30q112 -112 112 -270z
M400 675q-136 0 -229 -95q-95 -93 -95 -229q0 -134 95 -229q13 -15 36 -32l350 544q-74 41 -157 41zM629 122q95 95 95 229q0 136 -95 229q-25 22 -26 23l-350 -541q67 -35 147 -35q132 0 229 95z" />
    <glyph glyph-name="Ugrave" unicode="&#xd9;" horiz-adv-x="865" 
d="M283 702h-206q-12 0 -20.5 -8.5t-8.5 -19.5q0 -12 8.5 -20.5t20.5 -8.5h71v-457q0 -78 55 -133t134 -55h188q78 0 133.5 55t55.5 133v457h79q12 0 20 8.5t8 20.5q0 11 -8 19.5t-20 8.5h-206q-12 0 -20.5 -8.5t-8.5 -19.5q0 -12 8.5 -20.5t20.5 -8.5h70v-457
q0 -54 -38.5 -92.5t-93.5 -38.5h-188q-55 0 -93.5 38.5t-38.5 92.5v457h78q12 0 20 8.5t8 20.5q0 11 -8 19.5t-20 8.5zM391 894l70 -75q19 -21 -0.5 -39t-40.5 2l-72 69q-15 15 -10 32.5t21 21t32 -10.5z" />
    <glyph glyph-name="Uacute" unicode="&#xda;" horiz-adv-x="865" 
d="M77 702h206q12 0 20 -8.5t8 -19.5q0 -12 -8 -20.5t-20 -8.5h-78v-457q0 -54 38.5 -92.5t93.5 -38.5h188q55 0 93.5 38.5t38.5 92.5v457h-70q-12 0 -20.5 8.5t-8.5 20.5q0 11 8.5 19.5t20.5 8.5h206q12 0 20 -8.5t8 -19.5q0 -12 -8 -20.5t-20 -8.5h-79v-457
q0 -78 -55.5 -133t-133.5 -55h-188q-79 0 -134 55t-55 133v457h-71q-12 0 -20.5 8.5t-8.5 20.5q0 11 8.5 19.5t20.5 8.5zM411 817l70 75q15 16 32 10.5t20.5 -21.5t-9.5 -32l-72 -69q-21 -20 -40.5 -2t-0.5 39z" />
    <glyph glyph-name="Ucircumflex" unicode="&#xdb;" horiz-adv-x="865" 
d="M77 702h206q12 0 20 -8.5t8 -19.5q0 -12 -8 -20.5t-20 -8.5h-78v-457q0 -54 38.5 -92.5t93.5 -38.5h188q55 0 93.5 38.5t38.5 92.5v457h-70q-12 0 -20.5 8.5t-8.5 20.5q0 11 8.5 19.5t20.5 8.5h206q12 0 20 -8.5t8 -19.5q0 -12 -8 -20.5t-20 -8.5h-79v-457
q0 -78 -55.5 -133t-133.5 -55h-188q-79 0 -134 55t-55 133v457h-71q-12 0 -20.5 8.5t-8.5 20.5q0 11 8.5 19.5t20.5 8.5zM464 877l84 -59q21 -18 6.5 -37t-36.5 -6l-79 48l-81 -51q-24 -15 -39 6t9 38l88 61q23 18 48 0z" />
    <glyph glyph-name="Udieresis" unicode="&#xdc;" horiz-adv-x="865" 
d="M77 702h206q12 0 20 -8.5t8 -19.5q0 -12 -8 -20.5t-20 -8.5h-78v-457q0 -54 38.5 -92.5t93.5 -38.5h188q55 0 93.5 38.5t38.5 92.5v457h-70q-12 0 -20.5 8.5t-8.5 20.5q0 11 8.5 19.5t20.5 8.5h206q12 0 20 -8.5t8 -19.5q0 -12 -8 -20.5t-20 -8.5h-79v-457
q0 -78 -55.5 -133t-133.5 -55h-188q-79 0 -134 55t-55 133v457h-71q-12 0 -20.5 8.5t-8.5 20.5q0 11 8.5 19.5t20.5 8.5zM291 770h-1q-16 0 -27 11.5t-11 27.5t11 27.5t27 11.5h1q17 0 28 -11t11 -28t-11 -28t-28 -11zM581 770h-1q-16 0 -27 11.5t-11 27.5t11 27.5t27 11.5
h1q17 0 28 -11t11 -28t-11 -28t-28 -11z" />
    <glyph glyph-name="Yacute" unicode="&#xdd;" horiz-adv-x="724" 
d="M333 59v257l-266 322h-39q-12 0 -20.5 8.5t-8.5 20.5t8.5 20t20.5 8h168q12 0 20.5 -8t8.5 -20t-8.5 -20.5t-20.5 -8.5h-55l219 -265l213 265h-48q-12 0 -20.5 8.5t-8.5 20.5t8.5 20t20.5 8h168q12 0 20.5 -8t8.5 -20t-8.5 -20.5t-20.5 -8.5h-46l-258 -319l1 -260h58
q12 0 20.5 -8t8.5 -20t-8.5 -20.5t-20.5 -8.5h-168q-12 0 -20 8.5t-8 20.5t8 20t20 8h53zM339 817l70 75q15 16 32 10.5t20.5 -21.5t-9.5 -32l-72 -69q-21 -20 -40.5 -2t-0.5 39z" />
    <glyph glyph-name="Thorn" unicode="&#xde;" horiz-adv-x="723" 
d="M148 488h-75q-11 0 -19.5 8.5t-8.5 20.5t8.5 20t19.5 8h75v98h-74q-12 0 -20.5 8.5t-8.5 19.5q0 12 8.5 20.5t20.5 8.5h206q11 0 19.5 -8.5t8.5 -20.5q0 -11 -8.5 -19.5t-19.5 -8.5h-75v-98h305q51 0 91 -21t61 -54t30.5 -73t0 -80.5t-30.5 -73.5t-61 -54t-91 -21h-305
v-111h74q12 0 20.5 -8.5t8.5 -19.5q0 -12 -8.5 -20.5t-20.5 -8.5h-206q-11 0 -19.5 8.5t-8.5 20.5q0 11 8.5 19.5t19.5 8.5h75v111h-75q-11 0 -19.5 8.5t-8.5 20.5t8.5 20.5t19.5 8.5h75v262zM205 488v-262h305q36 0 64 14.5t42 37.5t21 51t0 56t-21 51t-42 37.5t-64 14.5
h-305z" />
    <glyph glyph-name="agrave" unicode="&#xe0;" horiz-adv-x="817" 
d="M680 292h-70l-158 352h50q12 0 20.5 8.5t8.5 19.5q0 12 -8.5 20.5t-20.5 8.5h-191q-12 0 -20.5 -8.5t-8.5 -20.5q0 -11 8.5 -19.5t20.5 -8.5h50l-158 -352h-70q-12 0 -20.5 -8.5t-8.5 -19.5q0 -13 8.5 -21.5t20.5 -8.5h44l-79 -176h-68q-12 0 -20.5 -8.5t-8.5 -20.5
t8.5 -20.5t20.5 -8.5h193q11 0 19.5 8.5t8.5 20.5t-8.5 20.5t-19.5 8.5h-62l79 176h333l79 -176h-61q-12 0 -20.5 -8.5t-8.5 -20.5t8.5 -20.5t20.5 -8.5h192q12 0 20.5 8.5t8.5 20.5t-8.5 20.5t-20.5 8.5h-68l-79 176h44q12 0 20.5 8.5t8.5 21.5q0 11 -8.5 19.5t-20.5 8.5z
M406 606l141 -314h-281zM359 878l70 -75q19 -21 -0.5 -39t-40.5 2l-72 69q-15 15 -10 32.5t21 21t32 -10.5z" />
    <glyph glyph-name="aacute" unicode="&#xe1;" horiz-adv-x="817" 
d="M680 292q12 0 20.5 -8.5t8.5 -19.5q0 -13 -8.5 -21.5t-20.5 -8.5h-44l79 -176h68q12 0 20.5 -8.5t8.5 -20.5t-8.5 -20.5t-20.5 -8.5h-192q-12 0 -20.5 8.5t-8.5 20.5t8.5 20.5t20.5 8.5h61l-79 176h-333l-79 -176h62q11 0 19.5 -8.5t8.5 -20.5t-8.5 -20.5t-19.5 -8.5
h-193q-12 0 -20.5 8.5t-8.5 20.5t8.5 20.5t20.5 8.5h68l79 176h-44q-12 0 -20.5 8.5t-8.5 21.5q0 11 8.5 19.5t20.5 8.5h70l158 352h-50q-12 0 -20.5 8.5t-8.5 19.5q0 12 8.5 20.5t20.5 8.5h191q12 0 20.5 -8.5t8.5 -20.5q0 -11 -8.5 -19.5t-20.5 -8.5h-50l158 -352h70z
M406 606l-140 -314h281zM391 809l70 75q15 16 32 10.5t20.5 -21.5t-9.5 -32l-72 -69q-21 -20 -40.5 -2t-0.5 39z" />
    <glyph glyph-name="acircumflex" unicode="&#xe2;" horiz-adv-x="817" 
d="M680 292q12 0 20.5 -8.5t8.5 -19.5q0 -13 -8.5 -21.5t-20.5 -8.5h-44l79 -176h68q12 0 20.5 -8.5t8.5 -20.5t-8.5 -20.5t-20.5 -8.5h-192q-12 0 -20.5 8.5t-8.5 20.5t8.5 20.5t20.5 8.5h61l-79 176h-333l-79 -176h62q11 0 19.5 -8.5t8.5 -20.5t-8.5 -20.5t-19.5 -8.5
h-193q-12 0 -20.5 8.5t-8.5 20.5t8.5 20.5t20.5 8.5h68l79 176h-44q-12 0 -20.5 8.5t-8.5 21.5q0 11 8.5 19.5t20.5 8.5h70l158 352h-50q-12 0 -20.5 8.5t-8.5 19.5q0 12 8.5 20.5t20.5 8.5h191q12 0 20.5 -8.5t8.5 -20.5q0 -11 -8.5 -19.5t-20.5 -8.5h-50l158 -352h70z
M406 606l-140 -314h281zM439 875l84 -59q21 -18 6.5 -37t-36.5 -6l-79 48l-81 -51q-24 -15 -39 6t9 38l88 61q23 18 48 0z" />
    <glyph glyph-name="atilde" unicode="&#xe3;" horiz-adv-x="817" 
d="M680 292q12 0 20.5 -8.5t8.5 -19.5q0 -13 -8.5 -21.5t-20.5 -8.5h-44l79 -176h68q12 0 20.5 -8.5t8.5 -20.5t-8.5 -20.5t-20.5 -8.5h-192q-12 0 -20.5 8.5t-8.5 20.5t8.5 20.5t20.5 8.5h61l-79 176h-333l-79 -176h62q11 0 19.5 -8.5t8.5 -20.5t-8.5 -20.5t-19.5 -8.5
h-193q-12 0 -20.5 8.5t-8.5 20.5t8.5 20.5t20.5 8.5h68l79 176h-44q-12 0 -20.5 8.5t-8.5 21.5q0 11 8.5 19.5t20.5 8.5h70l158 352h-50q-12 0 -20.5 8.5t-8.5 19.5q0 12 8.5 20.5t20.5 8.5h191q12 0 20.5 -8.5t8.5 -20.5q0 -11 -8.5 -19.5t-20.5 -8.5h-50l158 -352h70z
M406 606l-140 -314h281zM267 804q27 49 68.5 56.5t89.5 -36.5q18 -18 42.5 -16.5t36.5 24.5q7 10 18.5 10t19.5 -9t2 -20q-26 -44 -66 -51t-75 24q-64 59 -97 0q-10 -16 -28.5 -8.5t-10.5 26.5z" />
    <glyph glyph-name="adieresis" unicode="&#xe4;" horiz-adv-x="817" 
d="M680 292q12 0 20.5 -8.5t8.5 -19.5q0 -13 -8.5 -21.5t-20.5 -8.5h-44l79 -176h68q12 0 20.5 -8.5t8.5 -20.5t-8.5 -20.5t-20.5 -8.5h-192q-12 0 -20.5 8.5t-8.5 20.5t8.5 20.5t20.5 8.5h61l-79 176h-333l-79 -176h62q11 0 19.5 -8.5t8.5 -20.5t-8.5 -20.5t-19.5 -8.5
h-193q-12 0 -20.5 8.5t-8.5 20.5t8.5 20.5t20.5 8.5h68l79 176h-44q-12 0 -20.5 8.5t-8.5 21.5q0 11 8.5 19.5t20.5 8.5h70l158 352h-50q-12 0 -20.5 8.5t-8.5 19.5q0 12 8.5 20.5t20.5 8.5h191q12 0 20.5 -8.5t8.5 -20.5q0 -11 -8.5 -19.5t-20.5 -8.5h-50l158 -352h70z
M406 606l-140 -314h281zM261 763h-1q-16 0 -27 11.5t-11 27.5t11 27.5t27 11.5h1q17 0 28 -11.5t11 -27.5t-11 -27.5t-28 -11.5zM551 763h-1q-16 0 -27 11.5t-11 27.5t11 27.5t27 11.5h1q17 0 28 -11.5t11 -27.5t-11 -27.5t-28 -11.5z" />
    <glyph glyph-name="aring" unicode="&#xe5;" horiz-adv-x="817" 
d="M680 292q12 0 20.5 -8.5t8.5 -19.5q0 -13 -8.5 -21.5t-20.5 -8.5h-44l79 -176h68q12 0 20.5 -8.5t8.5 -20.5t-8.5 -20.5t-20.5 -8.5h-192q-12 0 -20.5 8.5t-8.5 20.5t8.5 20.5t20.5 8.5h61l-79 176h-333l-79 -176h62q11 0 19.5 -8.5t8.5 -20.5t-8.5 -20.5t-19.5 -8.5
h-193q-12 0 -20.5 8.5t-8.5 20.5t8.5 20.5t20.5 8.5h68l79 176h-44q-12 0 -20.5 8.5t-8.5 21.5q0 11 8.5 19.5t20.5 8.5h70l158 352h-50q-12 0 -20.5 8.5t-8.5 19.5q0 12 8.5 20.5t20.5 8.5h191q12 0 20.5 -8.5t8.5 -20.5q0 -11 -8.5 -19.5t-20.5 -8.5h-50l158 -352h70z
M406 606l-140 -314h281zM301 828q0 45 33 70.5t72 25.5t72 -25.5t33 -70.5q0 -44 -33 -69.5t-72 -25.5t-72 25.5t-33 69.5zM404 879q-32 0 -46 -25.5t-0.5 -50.5t46.5 -25q35 0 49.5 25t0 50.5t-49.5 25.5z" />
    <glyph glyph-name="ae" unicode="&#xe6;" horiz-adv-x="1066" 
d="M955 642h-344v-301h203q12 0 20.5 -9t8.5 -21t-8.5 -19.5t-20.5 -7.5h-203v-227h371v77q0 11 8.5 19.5t20.5 8.5t20 -8.5t8 -19.5v-102q0 -13 -10.5 -22.5t-23.5 -9.5h-526q-11 0 -19.5 8t-8.5 20t8.5 20.5t19.5 8.5h75v227h-254l-145 -226h62q11 0 19.5 -8.5t8.5 -20.5
t-8.5 -20.5t-19.5 -8.5h-193q-12 0 -20.5 8.5t-8.5 20.5t8.5 20.5t20.5 8.5h68l145 226h-44q-12 0 -20.5 8t-8.5 21q0 11 8.5 19.5t20.5 8.5h79l192 303h-50q-12 0 -20.5 8.5t-8.5 19.5q0 12 8.5 20.5t20.5 8.5l567 -1q13 0 22 -8t9 -21v-112q0 -12 -8.5 -20t-19.5 -8
q-12 0 -20.5 8t-8.5 20v83zM336 341h218v301h-21z" />
    <glyph glyph-name="ccedilla" unicode="&#xe7;" horiz-adv-x="686" 
d="M361 58h271q11 0 19.5 -8.5t8.5 -20.5t-8.5 -20.5t-19.5 -8.5h-223l-10 -40q52 0 80.5 -31t17.5 -75q-10 -39 -42 -58t-79 -17q-78 3 -109 68q-9 18 9.5 28.5t30.5 -7.5q23 -40 76 -40q54 0 63 38q6 27 -22.5 44t-66.5 7l-20 21l19 62q-108 1 -187 53t-114.5 129.5
t-35 167t36.5 166.5t116 128.5t189 51.5h271q11 0 19.5 -8.5t8.5 -20.5v-111q0 -12 -8.5 -20.5t-19.5 -8.5q-12 0 -20.5 8.5t-8.5 20.5v83h-242q-69 0 -125 -25t-90.5 -66t-53 -93t-18.5 -106.5t18.5 -106.5t53 -93t90.5 -66t125 -25z" />
    <glyph glyph-name="egrave" unicode="&#xe8;" horiz-adv-x="725" 
d="M205 642h409v-83q0 -12 8.5 -20t20.5 -8q11 0 19.5 8t8.5 20v112q0 13 -9 21t-22 8h-567q-11 0 -19.5 -8.5t-8.5 -20.5t8.5 -20.5t19.5 -8.5h75v-262h-75q-11 0 -19.5 -8.5t-8.5 -20.5t8.5 -20t19.5 -8h75v-266h-75q-11 0 -19.5 -8.5t-8.5 -20.5t8.5 -20t19.5 -8h591
q13 0 23.5 9.5t10.5 22.5v102q0 11 -8 19.5t-20 8.5t-20.5 -8.5t-8.5 -19.5v-77h-436v266h268q12 0 20.5 8t8.5 20t-8.5 20.5t-20.5 8.5h-268v262zM350 881l70 -75q19 -21 -0.5 -39t-40.5 2l-72 69q-15 15 -10 32.5t21 21t32 -10.5z" />
    <glyph glyph-name="eacute" unicode="&#xe9;" horiz-adv-x="725" 
d="M614 642h-409v-262h268q12 0 20.5 -8.5t8.5 -20.5t-8.5 -20t-20.5 -8h-268v-266h436v77q0 11 8.5 19.5t20.5 8.5t20 -8.5t8 -19.5v-102q0 -13 -10.5 -22.5t-23.5 -9.5h-591q-11 0 -19.5 8t-8.5 20t8.5 20.5t19.5 8.5h75v266h-75q-11 0 -19.5 8t-8.5 20t8.5 20.5t19.5 8.5
h75v262h-75q-11 0 -19.5 8.5t-8.5 20.5t8.5 20.5t19.5 8.5h567q13 0 22 -8t9 -21v-112q0 -12 -8.5 -20t-19.5 -8q-12 0 -20.5 8t-8.5 20v83zM370 808l70 75q15 16 32 10.5t20.5 -21.5t-9.5 -32l-72 -69q-21 -20 -40.5 -2t-0.5 39z" />
    <glyph glyph-name="ecircumflex" unicode="&#xea;" horiz-adv-x="725" 
d="M614 642h-409v-262h268q12 0 20.5 -8.5t8.5 -20.5t-8.5 -20t-20.5 -8h-268v-266h436v77q0 11 8.5 19.5t20.5 8.5t20 -8.5t8 -19.5v-102q0 -13 -10.5 -22.5t-23.5 -9.5h-591q-11 0 -19.5 8t-8.5 20t8.5 20.5t19.5 8.5h75v266h-75q-11 0 -19.5 8t-8.5 20t8.5 20.5t19.5 8.5
h75v262h-75q-11 0 -19.5 8.5t-8.5 20.5t8.5 20.5t19.5 8.5h567q13 0 22 -8t9 -21v-112q0 -12 -8.5 -20t-19.5 -8q-12 0 -20.5 8t-8.5 20v83zM434 875l84 -59q21 -18 6.5 -37t-36.5 -6l-79 48l-81 -51q-24 -15 -39 6t9 38l88 61q23 18 48 0z" />
    <glyph glyph-name="edieresis" unicode="&#xeb;" horiz-adv-x="725" 
d="M614 642h-409v-262h268q12 0 20.5 -8.5t8.5 -20.5t-8.5 -20t-20.5 -8h-268v-266h436v77q0 11 8.5 19.5t20.5 8.5t20 -8.5t8 -19.5v-102q0 -13 -10.5 -22.5t-23.5 -9.5h-591q-11 0 -19.5 8t-8.5 20t8.5 20.5t19.5 8.5h75v266h-75q-11 0 -19.5 8t-8.5 20t8.5 20.5t19.5 8.5
h75v262h-75q-11 0 -19.5 8.5t-8.5 20.5t8.5 20.5t19.5 8.5h567q13 0 22 -8t9 -21v-112q0 -12 -8.5 -20t-19.5 -8q-12 0 -20.5 8t-8.5 20v83zM240 768h-1q-16 0 -27 11.5t-11 27.5t11 27.5t27 11.5h1q16 0 27.5 -11t11.5 -28t-11.5 -28t-27.5 -11zM530 768h-1q-16 0 -27 11.5
t-11 27.5t11 27.5t27 11.5h1q16 0 27.5 -11t11.5 -28t-11.5 -28t-27.5 -11z" />
    <glyph glyph-name="igrave" unicode="&#xec;" horiz-adv-x="299" 
d="M173 642h74q12 0 20.5 8.5t8.5 20.5t-8.5 20.5t-20.5 8.5h-206q-12 0 -20.5 -8.5t-8.5 -20.5t8.5 -20.5t20.5 -8.5h74v-585h-74q-12 0 -20.5 -8.5t-8.5 -20.5t8.5 -20t20.5 -8h206q12 0 20.5 8t8.5 20t-8.5 20.5t-20.5 8.5h-74v585zM101 886l70 -75q19 -21 -0.5 -39
t-40.5 2l-72 69q-15 15 -10 32.5t21 21t32 -10.5z" />
    <glyph glyph-name="iacute" unicode="&#xed;" horiz-adv-x="299" 
d="M247 642h-74v-585h74q12 0 20.5 -8.5t8.5 -20.5t-8.5 -20t-20.5 -8h-206q-12 0 -20.5 8t-8.5 20t8.5 20.5t20.5 8.5h74v585h-74q-12 0 -20.5 8.5t-8.5 20.5t8.5 20.5t20.5 8.5h206q12 0 20.5 -8.5t8.5 -20.5t-8.5 -20.5t-20.5 -8.5zM123 811l70 75q15 16 32 10.5
t20.5 -21.5t-9.5 -32l-72 -69q-21 -20 -40.5 -2t-0.5 39z" />
    <glyph glyph-name="icircumflex" unicode="&#xee;" horiz-adv-x="299" 
d="M247 642h-74v-585h74q12 0 20.5 -8.5t8.5 -20.5t-8.5 -20t-20.5 -8h-206q-12 0 -20.5 8t-8.5 20t8.5 20.5t20.5 8.5h74v585h-74q-12 0 -20.5 8.5t-8.5 20.5t8.5 20.5t20.5 8.5h206q12 0 20.5 -8.5t8.5 -20.5t-8.5 -20.5t-20.5 -8.5zM172 876l84 -59q21 -18 6.5 -37
t-36.5 -6l-79 48l-81 -51q-24 -15 -39 6t9 38l88 61q23 18 48 0z" />
    <glyph glyph-name="idieresis" unicode="&#xef;" horiz-adv-x="299" 
d="M58 768h-1q-16 0 -27 11.5t-11 27.5t11 27.5t27 11.5h1q16 0 27.5 -11t11.5 -28t-11.5 -28t-27.5 -11zM229 768h-1q-16 0 -27 11.5t-11 27.5t11 27.5t27 11.5h1q17 0 28 -11t11 -28t-11 -28t-28 -11zM247 642h-74v-585h74q12 0 20.5 -8.5t8.5 -20.5t-8.5 -20t-20.5 -8
h-206q-12 0 -20.5 8t-8.5 20t8.5 20.5t20.5 8.5h74v585h-74q-12 0 -20.5 8.5t-8.5 20.5t8.5 20.5t20.5 8.5h206q12 0 20.5 -8.5t8.5 -20.5t-8.5 -20.5t-20.5 -8.5z" />
    <glyph glyph-name="eth" unicode="&#xf0;" horiz-adv-x="739" 
d="M151 323h-75q-12 0 -20.5 7.5t-8.5 19.5t8.5 20t20.5 8h75v261h-79q-11 0 -19.5 8t-8.5 20t8.5 20.5t19.5 8.5h297q83 0 150 -30t108 -79t63.5 -111.5t22.5 -127.5t-22.5 -127.5t-63.5 -111.5t-108 -79t-150 -30h-297q-11 0 -19.5 8.5t-8.5 20.5t8.5 20.5t19.5 8.5h79
v265zM208 58h161q91 0 158.5 43t97.5 107.5t30 140t-30 140t-97.5 107.5t-158.5 43h-161v-261h131q12 0 20.5 -8t8.5 -20t-8.5 -19.5t-20.5 -7.5h-131v-265z" />
    <glyph glyph-name="ntilde" unicode="&#xf1;" horiz-adv-x="857" 
d="M199 685l460 -572v530h-70q-12 0 -20.5 8.5t-8.5 20.5t8.5 20t20.5 8h197q12 0 20.5 -8t8.5 -20t-8.5 -20.5t-20.5 -8.5h-70v-611q0 -21 -20 -27t-32 11l-463 575v-533h70q12 0 20.5 -8.5t8.5 -20.5t-8.5 -20.5t-20.5 -8.5h-198q-11 0 -19.5 8.5t-8.5 20.5t8.5 20.5
t19.5 8.5h71v585h-71q-11 0 -19.5 8.5t-8.5 20.5t8.5 20t19.5 8h97q17 0 29 -15zM283 795q27 49 68.5 56.5t89.5 -36.5q18 -18 42.5 -16.5t36.5 24.5q7 10 18.5 10t19.5 -9t2 -20q-26 -44 -66 -51t-75 24q-64 59 -97 0q-10 -16 -28.5 -8.5t-10.5 26.5z" />
    <glyph glyph-name="ograve" unicode="&#xf2;" horiz-adv-x="819" 
d="M777 351q0 158 -112 270t-269 112q-158 0 -270 -112q-111 -111 -111 -270q0 -158 111 -269q112 -112 270 -112q157 0 269 112t112 269zM625 122q-97 -95 -229 -95q-134 0 -229 95t-95 229q0 136 95 229q93 95 229 95q134 0 229 -95q95 -93 95 -229q0 -134 -95 -229z
M357 894l70 -75q19 -21 -0.5 -39t-40.5 2l-72 69q-15 15 -10 32.5t21 21t32 -10.5z" />
    <glyph glyph-name="oacute" unicode="&#xf3;" horiz-adv-x="819" 
d="M777 351q0 -157 -112 -269t-269 -112q-158 0 -270 112q-111 111 -111 269q0 159 111 270q112 112 270 112q157 0 269 -112t112 -270zM625 122q95 95 95 229q0 136 -95 229q-95 95 -229 95q-136 0 -229 -95q-95 -93 -95 -229q0 -134 95 -229t229 -95q132 0 229 95z
M386 823l70 75q15 16 32 10.5t20.5 -21.5t-9.5 -32l-72 -69q-21 -20 -40.5 -2t-0.5 39z" />
    <glyph glyph-name="ocircumflex" unicode="&#xf4;" horiz-adv-x="819" 
d="M777 351q0 -157 -112 -269t-269 -112q-158 0 -270 112q-111 111 -111 269q0 159 111 270q112 112 270 112q157 0 269 -112t112 -270zM625 122q95 95 95 229q0 136 -95 229q-95 95 -229 95q-136 0 -229 -95q-95 -93 -95 -229q0 -134 95 -229t229 -95q132 0 229 95z
M435 883l84 -59q21 -18 6.5 -37t-36.5 -6l-79 48l-81 -51q-24 -15 -39 6t9 38l88 61q23 18 48 0z" />
    <glyph glyph-name="otilde" unicode="&#xf5;" horiz-adv-x="819" 
d="M271 815q25 50 65.5 58.5t91.5 -32.5q18 -17 43 -14.5t35 25.5q5 11 17.5 11t20.5 -8.5t3 -19.5q-24 -46 -63.5 -54.5t-75.5 21.5q-67 56 -98 -4q-9 -17 -27.5 -10t-11.5 27zM777 351q0 -157 -112 -269t-269 -112q-158 0 -270 112q-111 111 -111 269q0 159 111 270
q112 112 270 112q157 0 269 -112t112 -270zM625 122q95 95 95 229q0 136 -95 229q-95 95 -229 95q-136 0 -229 -95q-95 -93 -95 -229q0 -134 95 -229t229 -95q132 0 229 95z" />
    <glyph glyph-name="odieresis" unicode="&#xf6;" horiz-adv-x="819" 
d="M777 351q0 -157 -112 -269t-269 -112q-158 0 -270 112q-111 111 -111 269q0 159 111 270q112 112 270 112q157 0 269 -112t112 -270zM625 122q95 95 95 229q0 136 -95 229q-95 95 -229 95q-136 0 -229 -95q-95 -93 -95 -229q0 -134 95 -229t229 -95q132 0 229 95z
M270 772h-1q-16 0 -27 11.5t-11 27.5t11 27.5t27 11.5h1q16 0 27.5 -11t11.5 -28t-11.5 -28t-27.5 -11zM560 772h-1q-16 0 -27 11.5t-11 27.5t11 27.5t27 11.5h1q16 0 27.5 -11t11.5 -28t-11.5 -28t-27.5 -11z" />
    <glyph glyph-name="oslash" unicode="&#xf8;" horiz-adv-x="804" 
d="M781 351q0 -157 -112 -269t-269 -112q-95 0 -178 44l-65 -101q-9 -15 -24 -13t-21 15.5t1 28.5l63 98q-29 22 -46 40q-111 111 -111 269q0 159 111 270q112 112 270 112q100 0 189 -51l49 77q9 16 24.5 14t22 -15.5t-0.5 -28.5l-50 -78q20 -15 35 -30q112 -112 112 -270z
M400 675q-136 0 -229 -95q-95 -93 -95 -229q0 -134 95 -229q13 -15 36 -32l350 544q-74 41 -157 41zM629 122q95 95 95 229q0 136 -95 229q-25 22 -26 23l-350 -541q67 -35 147 -35q132 0 229 95z" />
    <glyph glyph-name="ugrave" unicode="&#xf9;" horiz-adv-x="861" 
d="M279 702h-206q-12 0 -20.5 -8.5t-8.5 -19.5q0 -12 8.5 -20.5t20.5 -8.5h71v-457q0 -78 55 -133t134 -55h188q78 0 133.5 55t55.5 133v457h79q12 0 20 8.5t8 20.5q0 11 -8 19.5t-20 8.5h-206q-12 0 -20.5 -8.5t-8.5 -19.5q0 -12 8.5 -20.5t20.5 -8.5h70v-457
q0 -54 -38.5 -92.5t-93.5 -38.5h-188q-55 0 -93.5 38.5t-38.5 92.5v457h78q12 0 20 8.5t8 20.5q0 11 -8 19.5t-20 8.5zM385 889l70 -75q19 -21 -0.5 -39t-40.5 2l-72 69q-15 15 -10 32.5t21 21t32 -10.5z" />
    <glyph glyph-name="uacute" unicode="&#xfa;" horiz-adv-x="861" 
d="M73 702h206q12 0 20 -8.5t8 -19.5q0 -12 -8 -20.5t-20 -8.5h-78v-457q0 -54 38.5 -92.5t93.5 -38.5h188q55 0 93.5 38.5t38.5 92.5v457h-70q-12 0 -20.5 8.5t-8.5 20.5q0 11 8.5 19.5t20.5 8.5h206q12 0 20 -8.5t8 -19.5q0 -12 -8 -20.5t-20 -8.5h-79v-457
q0 -78 -55.5 -133t-133.5 -55h-188q-79 0 -134 55t-55 133v457h-71q-12 0 -20.5 8.5t-8.5 20.5q0 11 8.5 19.5t20.5 8.5zM411 815l70 75q15 16 32 10.5t20.5 -21.5t-9.5 -32l-72 -69q-21 -20 -40.5 -2t-0.5 39z" />
    <glyph glyph-name="ucircumflex" unicode="&#xfb;" horiz-adv-x="861" 
d="M73 702h206q12 0 20 -8.5t8 -19.5q0 -12 -8 -20.5t-20 -8.5h-78v-457q0 -54 38.5 -92.5t93.5 -38.5h188q55 0 93.5 38.5t38.5 92.5v457h-70q-12 0 -20.5 8.5t-8.5 20.5q0 11 8.5 19.5t20.5 8.5h206q12 0 20 -8.5t8 -19.5q0 -12 -8 -20.5t-20 -8.5h-79v-457
q0 -78 -55.5 -133t-133.5 -55h-188q-79 0 -134 55t-55 133v457h-71q-12 0 -20.5 8.5t-8.5 20.5q0 11 8.5 19.5t20.5 8.5zM458 881l84 -59q21 -18 6.5 -37t-36.5 -6l-79 48l-81 -51q-24 -15 -39 6t9 38l88 61q23 18 48 0z" />
    <glyph glyph-name="udieresis" unicode="&#xfc;" horiz-adv-x="861" 
d="M73 702h206q12 0 20 -8.5t8 -19.5q0 -12 -8 -20.5t-20 -8.5h-78v-457q0 -54 38.5 -92.5t93.5 -38.5h188q55 0 93.5 38.5t38.5 92.5v457h-70q-12 0 -20.5 8.5t-8.5 20.5q0 11 8.5 19.5t20.5 8.5h206q12 0 20 -8.5t8 -19.5q0 -12 -8 -20.5t-20 -8.5h-79v-457
q0 -78 -55.5 -133t-133.5 -55h-188q-79 0 -134 55t-55 133v457h-71q-12 0 -20.5 8.5t-8.5 20.5q0 11 8.5 19.5t20.5 8.5zM285 770h-1q-16 0 -27 11.5t-11 27.5t11 27.5t27 11.5h1q17 0 28 -11t11 -28t-11 -28t-28 -11zM575 770h-1q-16 0 -27 11.5t-11 27.5t11 27.5t27 11.5
h1q17 0 28 -11t11 -28t-11 -28t-28 -11z" />
    <glyph glyph-name="yacute" unicode="&#xfd;" horiz-adv-x="727" 
d="M334 59v259l-266 325h-39q-12 0 -20.5 8.5t-8.5 20.5t8.5 20t20.5 8h168q12 0 20.5 -8t8.5 -20t-8.5 -20.5t-20.5 -8.5h-55l219 -267l214 267h-48q-12 0 -20.5 8.5t-8.5 20.5t8.5 20t20.5 8h168q12 0 20.5 -8t8.5 -20t-8.5 -20.5t-20.5 -8.5h-46l-258 -322l1 -262h58
q12 0 20.5 -8t8.5 -20t-8.5 -20.5t-20.5 -8.5h-169q-12 0 -20 8.5t-8 20.5t8 20t20 8h53zM351 818l70 75q15 16 32 10.5t20.5 -21.5t-9.5 -32l-72 -69q-21 -20 -40.5 -2t-0.5 39z" />
    <glyph glyph-name="thorn" unicode="&#xfe;" horiz-adv-x="723" 
d="M148 488h-75q-11 0 -19.5 8.5t-8.5 20.5t8.5 20t19.5 8h75v98h-74q-12 0 -20.5 8.5t-8.5 19.5q0 12 8.5 20.5t20.5 8.5h206q11 0 19.5 -8.5t8.5 -20.5q0 -11 -8.5 -19.5t-19.5 -8.5h-75v-98h305q51 0 91 -21t61 -54t30.5 -73t0 -80.5t-30.5 -73.5t-61 -54t-91 -21h-305
v-111h74q12 0 20.5 -8.5t8.5 -19.5q0 -12 -8.5 -20.5t-20.5 -8.5h-206q-11 0 -19.5 8.5t-8.5 20.5q0 11 8.5 19.5t19.5 8.5h75v111h-75q-11 0 -19.5 8.5t-8.5 20.5t8.5 20.5t19.5 8.5h75v262zM205 488v-262h305q36 0 64 14.5t42 37.5t21 51t0 56t-21 51t-42 37.5t-64 14.5
h-305z" />
    <glyph glyph-name="ydieresis" unicode="&#xff;" horiz-adv-x="727" 
d="M334 59v259l-266 325h-39q-12 0 -20.5 8.5t-8.5 20.5t8.5 20t20.5 8h168q12 0 20.5 -8t8.5 -20t-8.5 -20.5t-20.5 -8.5h-55l219 -267l214 267h-48q-12 0 -20.5 8.5t-8.5 20.5t8.5 20t20.5 8h168q12 0 20.5 -8t8.5 -20t-8.5 -20.5t-20.5 -8.5h-46l-258 -322l1 -262h58
q12 0 20.5 -8t8.5 -20t-8.5 -20.5t-20.5 -8.5h-169q-12 0 -20 8.5t-8 20.5t8 20t20 8h53zM216 767h-1q-16 0 -27 11.5t-11 27.5t11 27.5t27 11.5h1q16 0 27.5 -11.5t11.5 -27.5t-11.5 -27.5t-27.5 -11.5zM506 767h-1q-16 0 -27 11.5t-11 27.5t11 27.5t27 11.5h1
q16 0 27.5 -11.5t11.5 -27.5t-11.5 -27.5t-27.5 -11.5z" />
    <glyph glyph-name="dotlessi" unicode="&#x131;" horiz-adv-x="299" 
d="M247 642h-74v-585h74q12 0 20.5 -8.5t8.5 -20.5t-8.5 -20t-20.5 -8h-206q-12 0 -20.5 8t-8.5 20t8.5 20.5t20.5 8.5h74v585h-74q-12 0 -20.5 8.5t-8.5 20.5t8.5 20.5t20.5 8.5h206q12 0 20.5 -8.5t8.5 -20.5t-8.5 -20.5t-20.5 -8.5z" />
    <glyph glyph-name="Lslash" unicode="&#x141;" horiz-adv-x="715" 
d="M281 644h-74v-266l139 81q15 8 28.5 0t13 -22t-14.5 -24l-166 -95v-261h432v81q0 12 8.5 20.5t19.5 8.5q12 0 20.5 -8.5t8.5 -20.5v-110q0 -11 -8.5 -19.5t-20.5 -8.5h-592q-11 0 -19.5 8.5t-8.5 19.5q0 12 8.5 20.5t19.5 8.5h75v228l-79 -45q-16 -9 -29 -1t-12 22t15 24
l105 60v299h-75q-11 0 -19.5 8t-8.5 20t8.5 20.5t19.5 8.5h206q12 0 20.5 -8.5t8.5 -20.5t-8.5 -20t-20.5 -8z" />
    <glyph glyph-name="lslash" unicode="&#x142;" horiz-adv-x="723" 
d="M292 644h-74v-266l139 81q15 8 28.5 0t13 -22t-14.5 -24l-166 -95v-261h432v81q0 12 8.5 20.5t19.5 8.5q12 0 20.5 -8.5t8.5 -20.5v-110q0 -11 -8.5 -19.5t-20.5 -8.5h-592q-11 0 -19.5 8.5t-8.5 19.5q0 12 8.5 20.5t19.5 8.5h75v228l-79 -45q-16 -9 -29 -1t-12 22t15 24
l105 60v299h-75q-11 0 -19.5 8t-8.5 20t8.5 20.5t19.5 8.5h206q12 0 20.5 -8.5t8.5 -20.5t-8.5 -20t-20.5 -8z" />
    <glyph glyph-name="OE" unicode="&#x152;" horiz-adv-x="1019" 
d="M909 642h-365v-262h224q12 0 20.5 -8.5t8.5 -20.5t-8.5 -20t-20.5 -8h-224v-266h392v77q0 11 8.5 19.5t20.5 8.5t20 -8.5t8 -19.5v-102q0 -13 -10.5 -22.5t-23.5 -9.5h-428q-63 -23 -131 -23q-88 0 -159.5 32t-115.5 85t-68 120t-24 137.5t24 137.5t68 120t115.5 85
t159.5 32q71 0 137 -26h398q13 0 22 -8t9 -21v-112q0 -12 -8.5 -20t-19.5 -8q-12 0 -20.5 8t-8.5 20v83zM400 669q-75 0 -135.5 -27.5t-97.5 -72t-57 -101.5t-20 -117t20 -117t57 -101.5t97.5 -72t135.5 -27.5q48 0 92 12v612q-44 12 -92 12z" />
    <glyph glyph-name="oe" unicode="&#x153;" horiz-adv-x="1019" 
d="M909 642h-365v-262h224q12 0 20.5 -8.5t8.5 -20.5t-8.5 -20t-20.5 -8h-224v-266h392v77q0 11 8.5 19.5t20.5 8.5t20 -8.5t8 -19.5v-102q0 -13 -10.5 -22.5t-23.5 -9.5h-428q-63 -23 -131 -23q-88 0 -159.5 32t-115.5 85t-68 120t-24 137.5t24 137.5t68 120t115.5 85
t159.5 32q71 0 137 -26h398q13 0 22 -8t9 -21v-112q0 -12 -8.5 -20t-19.5 -8q-12 0 -20.5 8t-8.5 20v83zM400 669q-75 0 -135.5 -27.5t-97.5 -72t-57 -101.5t-20 -117t20 -117t57 -101.5t97.5 -72t135.5 -27.5q48 0 92 12v612q-44 12 -92 12z" />
    <glyph glyph-name="Scaron" unicode="&#x160;" horiz-adv-x="779" 
d="M235 378h332q59 0 102.5 -28t63 -70t20 -91t-19 -91t-63.5 -70t-103 -28h-339q-81 0 -138 48t-57 128q0 12 8.5 20t19.5 8q12 0 20.5 -8t8.5 -20q0 -56 40 -87.5t98 -31.5h339q36 0 64 14.5t42.5 38t21 51.5t-0.5 56t-21.5 51.5t-42.5 38t-63 14.5h-332q-44 0 -80.5 16.5
t-58.5 43t-34.5 60.5t-12.5 69.5t12 69.5t34 60.5t58.5 43t81.5 16.5h269q86 0 132 -50v31q0 17 14 24.5t28.5 0t14.5 -24.5v-148q0 -12 -8.5 -20.5t-20.5 -8.5q-11 0 -19.5 8.5t-8.5 20.5q0 49 -34 78q-37 32 -98 32h-269q-49 0 -82.5 -27.5t-41.5 -66.5t0 -77.5t41.5 -66
t82.5 -27.5zM371 757l-84 59q-21 18 -6.5 37t36.5 6l79 -48l81 51q24 15 39 -6t-9 -38l-88 -61q-23 -18 -48 0z" />
    <glyph glyph-name="scaron" unicode="&#x161;" horiz-adv-x="780" 
d="M229 378h332q59 0 102.5 -28t63 -70t20 -91t-19 -91t-63.5 -70t-103 -28h-339q-81 0 -138 48t-57 128q0 12 8.5 20t19.5 8q12 0 20.5 -8t8.5 -20q0 -56 40 -87.5t98 -31.5h339q36 0 64 14.5t42.5 38t21 51.5t-0.5 56t-21.5 51.5t-42.5 38t-63 14.5h-332q-44 0 -80.5 16.5
t-58.5 43t-34.5 60.5t-12.5 69.5t12 69.5t34 60.5t58.5 43t81.5 16.5h269q86 0 132 -50v31q0 17 14 24.5t28.5 0t14.5 -24.5v-148q0 -12 -8.5 -20.5t-20.5 -8.5q-11 0 -19.5 8.5t-8.5 20.5q0 49 -34 78q-37 32 -98 32h-269q-49 0 -82.5 -27.5t-41.5 -66.5t0 -77.5t41.5 -66
t82.5 -27.5zM369 753l-84 59q-21 18 -6.5 37t36.5 6l79 -48l81 51q24 15 39 -6t-9 -38l-88 -61q-23 -18 -48 0z" />
    <glyph glyph-name="Ydieresis" unicode="&#x178;" horiz-adv-x="776" 
d="M333 59v257l-266 322h-39q-12 0 -20.5 8.5t-8.5 20.5t8.5 20t20.5 8h168q12 0 20.5 -8t8.5 -20t-8.5 -20.5t-20.5 -8.5h-55l219 -265l213 265h-48q-12 0 -20.5 8.5t-8.5 20.5t8.5 20t20.5 8h168q12 0 20.5 -8t8.5 -20t-8.5 -20.5t-20.5 -8.5h-46l-258 -319l1 -260h58
q12 0 20.5 -8t8.5 -20t-8.5 -20.5t-20.5 -8.5h-168q-12 0 -20 8.5t-8 20.5t8 20t20 8h53zM222 745h-1q-16 0 -27 11.5t-11 27.5t11 27.5t27 11.5h1q16 0 27.5 -11.5t11.5 -27.5t-11.5 -27.5t-27.5 -11.5zM512 745h-1q-16 0 -27 11.5t-11 27.5t11 27.5t27 11.5h1
q16 0 27.5 -11.5t11.5 -27.5t-11.5 -27.5t-27.5 -11.5z" />
    <glyph glyph-name="Zcaron" unicode="&#x17d;" horiz-adv-x="701" 
d="M674 645l-270 -283h87q12 0 20 -8.5t8 -19.5q0 -12 -8 -21t-20 -9h-143l-237 -246h524v79q0 18 14.5 26t28.5 0t14 -26v-108q0 -12 -8 -20.5t-20 -8.5h-620q-12 0 -20.5 8.5t-8.5 20.5q0 14 10 22l244 253h-110q-12 0 -20 9t-8 21q0 11 8 19.5t20 8.5h165l265 276h-488
v-86q0 -12 -8 -20.5t-20 -8.5t-20 8.5t-8 20.5v115q0 12 8 20.5t20 8.5h583q20 0 26.5 -19t-8.5 -32zM344 758l-84 59q-21 18 -6.5 37t36.5 6l79 -48l81 51q24 15 39 -6t-9 -38l-88 -61q-23 -18 -48 0z" />
    <glyph glyph-name="zcaron" unicode="&#x17e;" horiz-adv-x="690" 
d="M340 755l-80 56q-20 17 -6.5 35t34.5 6l75 -46l77 49q23 14 37.5 -6t-8.5 -36l-84 -58q-21 -18 -45 0zM663 645l-270 -283h87q12 0 20 -8.5t8 -19.5q0 -12 -8 -21t-20 -9h-143l-237 -246h524v79q0 18 14 26t28.5 0t14.5 -26v-108q0 -12 -8 -20.5t-20 -8.5h-620
q-12 0 -20.5 8.5t-8.5 20.5q0 14 10 22l244 253h-110q-12 0 -20 9t-8 21q0 11 8 19.5t20 8.5h165l265 276h-488v-86q0 -12 -8 -20.5t-20 -8.5t-20 8.5t-8 20.5v115q0 12 8 20.5t20 8.5h583q20 0 26.5 -19t-8.5 -32z" />
    <glyph glyph-name="circumflex" unicode="&#x2c6;" horiz-adv-x="460" 
d="M256 881l84 -59q21 -18 6.5 -37t-36.5 -6l-79 48l-81 -51q-24 -15 -39 6t9 38l88 61q23 18 48 0z" />
    <glyph glyph-name="caron" unicode="&#x2c7;" horiz-adv-x="462" 
d="M217 719l-84 59q-21 18 -6.5 37t36.5 6l79 -48l81 51q24 15 39 -6t-9 -38l-88 -61q-23 -18 -48 0z" />
    <glyph glyph-name="breve" unicode="&#x2d8;" horiz-adv-x="458" 
d="M328 692q0 16 14 23.5t28 0.5t14 -24q-3 -63 -47 -99.5t-110 -36.5q-68 0 -111 36t-46 100q0 17 14 24.5t28 0t14 -24.5q5 -41 36 -63t66 -21.5t65.5 23t34.5 61.5z" />
    <glyph glyph-name="dotaccent" unicode="&#x2d9;" horiz-adv-x="198" 
d="M101 633h-1q-15 0 -25.5 10.5t-10.5 25.5t10.5 25.5t25.5 10.5h1q14 0 24.5 -10.5t10.5 -25.5t-10.5 -25.5t-24.5 -10.5z" />
    <glyph glyph-name="ring" unicode="&#x2da;" horiz-adv-x="367" 
d="M61 622q0 45 33 70.5t72 25.5t72 -25.5t33 -70.5q0 -44 -33 -69.5t-72 -25.5t-72 25.5t-33 69.5zM164 673q-32 0 -46 -25.5t-0.5 -50.5t46.5 -25q35 0 49.5 25t0 50.5t-49.5 25.5z" />
    <glyph glyph-name="ogonek" unicode="&#x2db;" horiz-adv-x="377" 
d="M159 0h53l21 -67l-20 -21q-38 10 -66.5 -7t-22.5 -44q9 -38 63 -38q53 0 76 40q12 18 30.5 7.5t9.5 -28.5q-31 -65 -109 -68q-47 -2 -79 17t-42 58q-11 44 17.5 75t80.5 31z" />
    <glyph glyph-name="tilde" unicode="&#x2dc;" horiz-adv-x="421" 
d="M75 712q27 49 68.5 56.5t89.5 -36.5q18 -18 42.5 -16.5t36.5 24.5q7 10 18.5 10t19.5 -9t2 -20q-26 -44 -66 -51t-75 24q-64 59 -97 0q-10 -16 -28.5 -8.5t-10.5 26.5z" />
    <glyph glyph-name="hungarumlaut" unicode="&#x2dd;" horiz-adv-x="421" 
d="M88 606l73 91q11 14 27 10t21 -17.5t-4 -28.5l-73 -91q-18 -22 -39.5 -4t-4.5 40zM232 606l73 91q11 14 27 10t21 -17.5t-4 -28.5l-73 -91q-18 -22 -39.5 -4t-4.5 40z" />
    <glyph glyph-name="fraction" unicode="&#x2044;" horiz-adv-x="178" 
d="M-112 -43l353 789q7 17 22 17.5t25 -12t3 -28.5l-355 -790q-7 -16 -21.5 -16.5t-23.5 12.5t-3 28z" />
    <glyph glyph-name="fi" unicode="&#xfb01;" horiz-adv-x="1056" 
d="M215 57h74q11 0 19.5 -8.5t8.5 -19.5q0 -12 -8.5 -20.5t-19.5 -8.5h-206q-12 0 -20.5 8.5t-8.5 20.5q0 11 8.5 19.5t20.5 8.5h74v269h-74q-12 0 -20.5 8.5t-8.5 20.5t8.5 20t20.5 8h74v263h-74q-12 0 -20.5 8.5t-8.5 19.5q0 12 8.5 20.5t20.5 8.5h588q31 0 31 -33v-107
q0 -12 -8.5 -20.5t-19.5 -8.5q-12 0 -20.5 8.5t-8.5 20.5v83h-430v-263h268q12 0 20.5 -8t8.5 -20t-8.5 -20.5t-20.5 -8.5h-268v-269zM997 642h-74v-585h74q12 0 20.5 -8.5t8.5 -20.5t-8.5 -20t-20.5 -8h-206q-12 0 -20.5 8t-8.5 20t8.5 20.5t20.5 8.5h74v585h-74
q-12 0 -20.5 8.5t-8.5 20.5t8.5 20.5t20.5 8.5h206q12 0 20.5 -8.5t8.5 -20.5t-8.5 -20.5t-20.5 -8.5z" />
    <glyph glyph-name="fl" unicode="&#xfb02;" horiz-adv-x="1429" 
d="M206 57h74q11 0 19.5 -8.5t8.5 -19.5q0 -12 -8.5 -20.5t-19.5 -8.5h-206q-12 0 -20.5 8.5t-8.5 20.5q0 11 8.5 19.5t20.5 8.5h74v269h-74q-12 0 -20.5 8.5t-8.5 20.5t8.5 20t20.5 8h74v263h-74q-12 0 -20.5 8.5t-8.5 19.5q0 12 8.5 20.5t20.5 8.5h588q31 0 31 -33v-107
q0 -12 -8.5 -20.5t-19.5 -8.5q-12 0 -20.5 8.5t-8.5 20.5v83h-430v-263h268q12 0 20.5 -8t8.5 -20t-8.5 -20.5t-20.5 -8.5h-268v-269zM1000 644h-74v-587h432v81q0 12 8.5 20.5t19.5 8.5q12 0 20.5 -8.5t8.5 -20.5v-110q0 -11 -8.5 -19.5t-20.5 -8.5h-592q-11 0 -19.5 8.5
t-8.5 19.5q0 12 8.5 20.5t19.5 8.5h75v587h-75q-11 0 -19.5 8t-8.5 20t8.5 20.5t19.5 8.5h206q12 0 20.5 -8.5t8.5 -20.5t-8.5 -20t-20.5 -8z" />
    <glyph glyph-name="_0004" horiz-adv-x="0" 
 />
    </font>
</defs>
</svg>
