<?xml version="1.0" standalone="no"?>
<!DOCTYPE svg PUBLIC "-//W3C//DTD SVG 1.1//EN" "http://www.w3.org/Graphics/SVG/1.1/DTD/svg11.dtd" >
<svg xmlns="http://www.w3.org/2000/svg" xmlns:xlink="http://www.w3.org/1999/xlink" version="1.1">
<metadata>
Created by FontForge 20161003 at Tue Feb 19 10:02:25 2019
 By www-data
</metadata>
<defs>
<font id="paltno" horiz-adv-x="250" >
  <font-face 
    font-family="paltno"
    font-weight="500"
    font-stretch="normal"
    units-per-em="1000"
    panose-1="0 0 0 0 0 0 0 0 0 0"
    ascent="800"
    descent="-200"
    x-height="459"
    cap-height="681"
    bbox="-152 -266 1000 924"
    underline-thickness="50"
    underline-position="-155"
    unicode-range="U+0020-F002"
  />
<missing-glyph 
 />
    <glyph glyph-name=".notdef" 
 />
    <glyph glyph-name="glyph1" horiz-adv-x="0" 
 />
    <glyph glyph-name="glyph2" 
 />
    <glyph glyph-name="space" unicode=" " 
 />
    <glyph glyph-name="space" unicode="&#xa0;" 
 />
    <glyph glyph-name="exclam" unicode="!" horiz-adv-x="278" 
d="M141 144q31 -1 54.5 -25t23.5 -56q0 -28 -23 -51.5t-55 -23.5q-31 0 -54.5 22t-23.5 53q0 32 23.5 56t54.5 24v1zM168 688h51q0 -28 -2 -52t-5 -45l-50 -371l-38 -21l-5 8l-47 358q-1 5 -1.5 10.5t-0.5 10.5q0 9 -0.5 18t-0.5 18q-1 5 -1 10.5v10.5l100 45v0z" />
    <glyph glyph-name="quotedbl" unicode="&#x22;" horiz-adv-x="402" 
d="M113 376h-46l-44 239l-0.5 1.5t-0.5 2.5v2.5v2.5v2.5v2.5q3 25 22.5 45t45.5 20t45 -20t22 -43q1 -2 1 -4v-4v-4.5t-1 -4.5l-44 -238v0zM335 376h-46l-44 239l-0.5 1.5t-0.5 2.5v2.5v2.5v2.5v2.5q3 25 22.5 45t45.5 20t45 -20t22 -43q1 -2 1 -4v-4v-4.5t-1 -4.5l-44 -238
v0z" />
    <glyph glyph-name="numbersign" unicode="#" horiz-adv-x="500" 
d="M470 290v-75h-105l-32 -215h-75l32 215h-108l-32 -215h-75l32 215h-103v75h115l16 107h-103v75h114l30 201h75l-30 -201h107l29 201h75l-29 -201h93v-75h-104l-16 -107h94v0zM317 397h-107l-16 -107h107l16 107v0z" />
    <glyph glyph-name="dollar" unicode="$" horiz-adv-x="500" 
d="M221 37v240q-90 10 -141.5 47.5t-51.5 135.5q0 88 50 139t143 68l-2 54h50l-2 -53q11 -1 21.5 -1.5t20.5 -1.5q32 -3 63.5 -10.5t59.5 -20.5l2 -6q-7 -25 -10 -54t-4 -59v-14v-14l-39 1v8v8q0 20 -1.5 36.5t-5.5 26.5q-1 3 -3.5 6t-5.5 6q-10 8 -27.5 16.5t-36.5 12.5
q-9 3 -17.5 4t-16.5 1v-211q89 -16 147 -52.5t58 -136.5q0 -91 -56.5 -154.5t-148.5 -71.5l2 -101h-51l3 97q-9 0 -18.5 0.5t-18.5 1.5q-40 4 -78.5 12.5t-72.5 24.5l-3 10q1 6 1.5 13t1.5 14q2 25 3.5 53t2.5 68l40 1l1 -40q0 -14 2.5 -26.5t8.5 -22.5q3 -4 8.5 -9.5
t13.5 -10.5q16 -11 39 -21t48 -13q5 -1 10.5 -1.5t10.5 -0.5v1zM267 267v-227q43 9 70.5 42t27.5 77q0 46 -26 74t-72 33v1zM221 408v206q-7 -1 -14 -2.5t-15 -5.5q-23 -10 -42.5 -36t-19.5 -67q0 -40 25.5 -65.5t65.5 -30.5v1z" />
    <glyph glyph-name="percent" unicode="%" horiz-adv-x="889" 
d="M283 -9h-49l366 723h49l-366 -723v0zM665 328q71 -1 117 -47t46 -120q0 -73 -49 -117t-114 -44q-64 0 -113.5 44t-49.5 117q0 74 46 120t117 46v1zM665 296l-10 -2t-11 -3q-16 -7 -29 -34t-13 -91q0 -82 18 -108.5t45 -26.5t45 26.5t18 108.5q0 64 -13 91t-29 34
q-6 2 -11 3t-10 1v1zM224 700q71 -1 117 -47t46 -120q0 -73 -49 -117.5t-114 -44.5q-64 0 -113.5 44.5t-49.5 117.5q0 74 46 120t117 46v1zM224 668l-10 -2t-11 -3q-16 -7 -29 -34t-13 -91q0 -82 18 -108.5t45 -26.5t45 26.5t18 108.5q0 64 -13 91t-29 34q-6 2 -11 3t-10 1
v1z" />
    <glyph glyph-name="ampersand" unicode="&#x26;" horiz-adv-x="833" 
d="M537 328h-90q2 4 5.5 9.5t6.5 12.5q2 3 3.5 6.5t3.5 7.5q3 8 6 15.5t4 13.5l118 -3q6 -1 12.5 -1.5t12.5 -0.5h12.5h12.5q32 0 66.5 1.5t77.5 4.5l3 -8q-1 -3 -2 -5t-1 -4l-6 -16t-5 -17q-2 -8 -3.5 -15t-2.5 -14q-12 1 -24.5 2t-25.5 2q-25 2 -49 2.5t-42 0.5
q1 -4 1.5 -8.5t0.5 -8.5q1 -4 1 -8.5v-8.5q0 -38 -16.5 -77t-48.5 -79q23 -16 51 -27.5t58 -17.5q11 -2 21.5 -3t21.5 -1q12 0 21 3t17 8q6 4 11.5 8t12.5 8l17 12l14 -32l-7.5 -7.5t-7.5 -6.5q-11 -10 -22 -20.5t-21 -21.5t-19 -22.5t-16 -20.5l-66 -3h-4.5h-4.5
q-43 0 -85 18t-77 46q-42 -34 -93.5 -51.5t-105.5 -17.5q-89 0 -160.5 48t-71.5 145q0 76 46.5 120.5t108.5 75.5q-14 34 -22.5 63t-10.5 57v5.5v5.5v6.5t1 7.5q1 18 11 39t39 51l35 39q13 13 31 21.5t36 11.5q10 2 20.5 3t19.5 1q48 0 79 -28t31 -78q0 -55 -36.5 -95
t-79.5 -70q-11 -8 -21.5 -15t-20.5 -13q43 -64 94.5 -121t111.5 -106q11 17 20 37.5t11 41.5q1 3 1 5.5v5.5q0 9 -1.5 19.5t-3.5 20.5q-3 10 -6.5 20.5t-8.5 19.5v1zM350 53q3 -1 6 -1h6q21 2 41.5 9.5t37.5 20.5q-67 57 -119.5 117t-99.5 136l-15 -15t-12 -14
q-13 -17 -18.5 -34.5t-5.5 -41.5q0 -71 54.5 -124.5t124.5 -53.5v1zM332 622q-37 -1 -52 -24t-15 -57q0 -27 9 -53.5t20 -51.5q1 -3 2.5 -5.5t2.5 -5.5q2 1 4 2.5t4 2.5q31 21 57 53t26 72q0 26 -14.5 46t-43.5 20v1z" />
    <glyph glyph-name="quotesingle" unicode="'" horiz-adv-x="227" 
d="M136 376h-46l-44 239l-0.5 1.5t-0.5 2.5v2.5v2.5v2.5v2.5q3 25 22.5 45t45.5 20t45 -20t22 -43q1 -2 1 -4v-4v-4.5t-1 -4.5l-44 -238v0z" />
    <glyph glyph-name="parenleft" unicode="(" horiz-adv-x="333" 
d="M279 723l26 -22q-72 -80 -89 -178.5t-18 -200.5v-12v-12q0 -103 15.5 -197.5t91.5 -180.5l-24 -24q-107 75 -161.5 175.5t-54.5 233.5q0 134 53.5 236t160.5 181v1z" />
    <glyph glyph-name="parenright" unicode=")" horiz-adv-x="333" 
d="M28 701l26 22q107 -80 160.5 -182t53.5 -236q0 -133 -54.5 -233.5t-161.5 -175.5l-24 24q76 86 91.5 180.5t15.5 197.5v12v12q-1 102 -18 200.5t-89 177.5v1z" />
    <glyph glyph-name="asterisk" unicode="*" horiz-adv-x="444" 
d="M319 673l5 -14q-8 -8 -16.5 -19t-17.5 -24q-8 -12 -15.5 -24.5t-14.5 -25.5q-5 -9 -9.5 -18l-8.5 -17q11 2 23.5 4.5t25.5 5.5q28 5 53 10t39 11l6 -2q-1 -5 -1 -9.5v-9.5q0 -8 0.5 -17t2.5 -17q1 -9 3 -18t5 -17l-9 -10q-18 7 -37.5 12.5t-39.5 9.5t-39.5 7t-37.5 4
q4 -6 7.5 -11.5t6.5 -11.5q14 -23 29 -47t37 -48l-2 -11q-8 -2 -18.5 -5.5t-21.5 -7.5q-5 -3 -11 -5.5t-11 -4.5l-12 -6t-11 -6l-15 8q0 28 -2 66t-9 78q-10 -7 -22 -18t-25 -24q-7 -7 -14 -14.5t-14 -15.5t-13.5 -16.5t-12.5 -16.5l-19 9q-1 2 -2 5t-3 6q-3 10 -8 19
t-10 17q-4 7 -8 12.5t-8 9.5l4 8q15 3 32 8.5t34 11.5q16 6 31.5 13t29.5 14q3 1 5.5 2.5t4.5 2.5q-14 10 -31.5 18.5t-35.5 16.5q-19 8 -38 14t-33 10l-3 8q2 3 4.5 7t5.5 7q2 4 4.5 8t4.5 7q7 13 13.5 25t11.5 22l16 1q3 -4 5.5 -7t5.5 -6q21 -25 43 -50.5t48 -51.5l2 12
t2 13q5 28 7 55t2 50v6v6l8 8q23 -9 45.5 -14.5t46.5 -8.5v1z" />
    <glyph glyph-name="plus" unicode="+" horiz-adv-x="606" 
d="M260 298v207h86v-207h209v-86h-209v-212h-86v212h-209v86h209v0z" />
    <glyph glyph-name="comma" unicode="," 
d="M80 -136l-71 -30l-15 13q9 18 17.5 37t15.5 38q21 53 34 102t15 78q20 5 44.5 11.5t50.5 14.5l20 6t19 6l17 -15q-12 -27 -25 -53t-28 -52q-21 -37 -44.5 -76t-49.5 -80v0z" />
    <glyph glyph-name="hyphen" unicode="-" horiz-adv-x="333" 
d="M50 305h258l9 -10q-3 -7 -5.5 -14t-5.5 -15l-6 -16t-5 -16q-4 -11 -6.5 -21t-3.5 -19l-261 1l-8 8q2 4 3.5 8.5t2.5 9.5q1 3 2.5 6.5t2.5 6.5q7 20 13.5 38.5t9.5 31.5v1z" />
    <glyph glyph-name="period" unicode="." 
d="M125 144q31 -1 54.5 -25t23.5 -56q0 -28 -23 -51.5t-55 -23.5q-31 0 -54.5 22t-23.5 53q0 32 23.5 56t54.5 24v1z" />
    <glyph glyph-name="slash" unicode="/" horiz-adv-x="296" 
d="M215 720h90l-224 -737h-90l224 737v0z" />
    <glyph glyph-name="zero" unicode="0" horiz-adv-x="500" 
d="M262 660q126 -1 164 -85t41 -185q1 -10 1 -19.5v-18.5q0 -24 -0.5 -49.5t-3.5 -51.5q-8 -101 -52.5 -184.5t-168.5 -83.5q-126 0 -165 82.5t-44 181.5q0 16 -0.5 32t-0.5 32t0.5 31.5t1.5 31.5q6 107 51 196t176 89v1zM244 610q-46 -1 -64.5 -42t-23.5 -90
q-2 -25 -2.5 -49t-0.5 -42v-7.5v-6.5q0 -25 0.5 -50t1.5 -49q1 -25 3.5 -50t5.5 -50q1 -11 3 -24t5 -26q8 -35 27 -63.5t58 -28.5q51 0 71 66t20 151q0 20 -0.5 41t-1.5 41q-1 31 -3 62t-6 61q-2 13 -4 28t-5 31q-8 36 -26.5 66t-57.5 30v1z" />
    <glyph glyph-name="one" unicode="1" horiz-adv-x="500" 
d="M189 564l-140 -65q-7 17 -10.5 33t-3.5 30v3.5v2.5q30 7 73.5 20.5t88.5 29.5q10 4 20 7.5t20 6.5q26 10 51 19.5t46 17.5l12 -9q-1 -14 -2 -31t-2 -37q-2 -36 -4 -83t-2 -104v-321q0 -26 16.5 -36t40.5 -12l62 -2v-37q-23 0 -42 0.5t-35 0.5q-30 1 -52 1.5t-43 0.5h-2.5
h-2.5q-21 0 -45.5 -0.5t-62.5 -1.5q-19 0 -42.5 -0.5t-52.5 -0.5v37l72 3q24 1 40.5 11t16.5 35v444v1v2q0 14 -2 26t-13 7v1z" />
    <glyph glyph-name="two" unicode="2" horiz-adv-x="500" 
d="M25 -3v51l167 166q44 43 80.5 101.5t36.5 122.5q0 54 -28 85t-83 31q-6 0 -12 -0.5t-12 -2.5q-24 -5 -44.5 -19t-25.5 -33l-18 -67l-37 3l18 165q36 28 76 43.5t81 15.5q95 0 156 -47t61 -130v-8t-1 -8q-5 -48 -33 -93.5t-61 -80.5l-4 -4l-4 -4l-174 -170l2 -8l302 11
l4 -5q-1 -11 -1.5 -21.5t-1.5 -21.5v-10.5v-10.5q0 -13 0.5 -26.5t1.5 -24.5q-24 0 -46 0.5t-42 0.5q-41 1 -74 1.5t-61 0.5t-62 -0.5t-74 -1.5q-20 0 -41.5 -0.5t-45.5 -0.5v0z" />
    <glyph glyph-name="three" unicode="3" horiz-adv-x="500" 
d="M22 156l34 9q23 -56 59.5 -91.5t100.5 -35.5q52 0 82.5 36.5t34.5 80.5q1 4 1 7.5v7.5q0 57 -34 91t-91 34q-16 0 -31.5 -1.5t-30.5 -6.5l-7 6l19 74h35q47 -1 80 25.5t33 81.5q0 38 -27 62.5t-75 24.5t-73.5 -24.5t-36.5 -53.5q-2 -6 -4 -11.5t-3 -11.5l-35 1l31 154
q37 22 74.5 33t76.5 11q80 0 131.5 -39t51.5 -101q0 -52 -32.5 -88.5t-76.5 -56.5v-1q65 -5 107 -42.5t42 -105.5q0 -57 -23.5 -99.5t-67.5 -77.5q-33 -27 -75 -43t-85 -21q-7 0 -14.5 -0.5t-14.5 -0.5q-34 0 -67 5t-64 18q-2 16 -4.5 32.5t-5.5 33.5q-1 8 -2.5 15.5
t-2.5 15.5q-3 14 -5.5 27t-4.5 25v1z" />
    <glyph glyph-name="four" unicode="4" horiz-adv-x="500" 
d="M19 165l-7 39q44 109 106.5 219.5t138.5 220.5l122 28l7 -12q-2 -73 -4 -145t-2 -144v-124h88l1 -2v-80h-89v-54q0 -39 16.5 -56.5t40.5 -18.5l36 -2v-37q-16 0 -30.5 0.5t-27.5 0.5q-23 1 -43 1.5t-39 0.5h-5.5h-5.5q-21 0 -44.5 -0.5t-56.5 -1.5q-17 0 -36 -0.5
t-43 -0.5v37l64 3q24 0 40.5 17.5t16.5 55.5v55h-244v0zM82 247h181v329h-2q-6 -11 -12 -21l-12 -20q-3 -3 -5 -6.5t-4 -7.5q-11 -16 -21 -32.5t-19 -33.5l-62 -115q-7 -14 -13.5 -28t-13.5 -29q0 -1 -1 -2.5t-1 -3.5q-4 -8 -7.5 -15.5t-7.5 -15.5v1z" />
    <glyph glyph-name="five" unicode="5" horiz-adv-x="500" 
d="M149 539l-4 -155q14 5 26.5 10.5t24.5 9.5q18 6 37.5 9.5t41.5 3.5q82 0 139.5 -45t57.5 -132q0 -57 -21.5 -103.5t-65.5 -83.5q-34 -29 -77.5 -46.5t-88.5 -22.5q-7 0 -14 -0.5t-14 -0.5q-35 0 -65 5.5t-53 15.5q-5 28 -13.5 62.5t-17.5 71.5l30 19q17 -47 58 -82
t92 -35q62 0 97 36.5t35 97.5t-34 100.5t-97 39.5q-35 0 -64.5 -10.5t-49.5 -29.5l-19 12q1 9 1.5 19.5t0.5 20.5q1 5 1 10.5t1 10.5q1 16 1.5 31.5t0.5 30.5v103q0 11 -0.5 25t-0.5 28q-1 12 -1.5 23t-1.5 21q0 11 -0.5 21t-1.5 17l7 9q13 -1 26.5 -2t27.5 -1q23 -2 48 -3
t50 -1h9.5h8.5q30 0 59 1t59 3q15 0 29.5 1t29.5 1l4 -7q-4 -15 -5.5 -31t-1.5 -33v-8.5v-8.5q0 -5 0.5 -9t0.5 -9l-6 -10q-12 -1 -24 -0.5t-24 0.5q-6 0 -12 0.5t-11 0.5q-18 0 -36 0.5t-36 0.5q-24 0 -48 -0.5t-48 -1.5q-12 0 -24 -0.5t-24 -0.5v1z" />
    <glyph glyph-name="six" unicode="6" horiz-adv-x="500" 
d="M396 660l39 -27l-15 -16h-10.5h-10.5q-6 0 -12.5 -0.5t-12.5 -0.5q-46 -6 -89 -31.5t-72 -74.5q-12 -21 -20.5 -46.5t-13.5 -52.5q-5 -21 -7.5 -42t-3.5 -39l2 -1q25 31 59 55t86 24q80 0 117 -57t37 -129q0 -97 -55.5 -168t-159.5 -71q-116 0 -166.5 79t-50.5 211
q0 95 36.5 176.5t112.5 139.5q9 7 18 13.5t18 11.5q40 24 81.5 34.5t92.5 10.5v1zM256 323q-41 -1 -66 -28.5t-25 -93.5t23 -117.5t75 -51.5q42 0 61 30t24 67q2 10 2.5 20t0.5 20q0 12 -1.5 26.5t-4.5 29.5q-8 36 -28.5 66.5t-60.5 30.5v1z" />
    <glyph glyph-name="seven" unicode="7" horiz-adv-x="500" 
d="M400 436l-110 -224q-8 -17 -18 -40t-20 -49l-4 -10l-4 -10q-13 -31 -23.5 -59.5t-16.5 -46.5q-5 0 -9.5 0.5t-9.5 0.5q-3 0 -5.5 0.5t-4.5 0.5q-7 0 -14.5 0.5t-14.5 0.5q-8 0 -16.5 -0.5t-17.5 -1.5q-4 0 -8.5 -0.5t-9.5 -0.5l-6 11l300 518l-4 6h-225q-37 -1 -48 -11
t-15 -42l-8 -63h-39q0 16 0.5 33t0.5 34q0 42 -1 83.5t-3 80.5l10 9q25 -1 49.5 -2t49.5 -1q12 -1 24.5 -1t24.5 -1q37 -1 74 -1.5t74 -0.5q24 0 47 0.5t47 1.5q12 0 23.5 0.5t23.5 0.5v-44q-13 -22 -29 -50t-32 -59q-8 -15 -16 -31.5t-16 -32.5v1z" />
    <glyph glyph-name="eight" unicode="8" horiz-adv-x="500" 
d="M263 660q69 -1 121.5 -36t52.5 -112q0 -43 -26 -76.5t-68 -60.5q8 -3 15.5 -6.5t15.5 -7.5q35 -19 64 -57.5t29 -100.5q0 -98 -68 -159t-164 -61q-102 0 -150 51.5t-51 114.5v4v4q0 55 34.5 98t82.5 64q-46 25 -73 62.5t-27 91.5q0 83 55 134.5t157 51.5v1zM253 275
l-61 27q-3 -4 -6.5 -7t-6.5 -6q-28 -25 -42 -53t-14 -69q0 -55 35.5 -94t91.5 -39q47 0 77 34t30 80q0 53 -30.5 80t-73.5 46v1zM250 412l44 -19q29 22 44 48.5t15 56.5q0 47 -27 78t-76 31q-41 0 -68.5 -23t-27.5 -66t28.5 -66.5t61.5 -38.5q2 0 3.5 -0.5t2.5 -1.5v1z" />
    <glyph glyph-name="nine" unicode="9" horiz-adv-x="500" 
d="M105 -17l-38 29l9 18q7 -2 14 -3t15 -1q23 1 52.5 8.5t65.5 28.5q20 13 36.5 32.5t27.5 40.5q16 29 25 61t13 65q2 13 3.5 26t2.5 26l-63 -54q-3 -4 -6.5 -6.5t-6.5 -4.5q-14 -9 -29.5 -11.5t-34.5 -2.5q-85 0 -122.5 56.5t-37.5 133.5q0 111 59.5 172.5t154.5 61.5
q125 0 171.5 -80.5t46.5 -190.5q0 -138 -70 -251t-211 -146q-9 -2 -19 -3.5t-19 -2.5q-10 -1 -20 -1.5t-19 -0.5v0zM250 323q53 -1 69.5 35.5t16.5 80.5q0 14 -1 30t-3 32q-7 40 -26.5 73t-63.5 33q-47 0 -67.5 -33.5t-24.5 -72.5q0 -7 -0.5 -13t-0.5 -12q0 -10 0.5 -20.5
t2.5 -20.5q6 -43 27.5 -78t70.5 -35v1z" />
    <glyph glyph-name="colon" unicode=":" 
d="M125 144q31 -1 54.5 -25t23.5 -56q0 -28 -23 -51.5t-55 -23.5q-31 0 -54.5 22t-23.5 53q0 32 23.5 56t54.5 24v1zM125 454q31 -1 54.5 -25t23.5 -56q0 -28 -23 -52t-55 -24q-31 0 -54.5 22.5t-23.5 53.5q0 32 23.5 56t54.5 24v1z" />
    <glyph glyph-name="semicolon" unicode=";" 
d="M80 -136l-71 -30l-15 13q9 18 17.5 37t15.5 38q21 53 34 102t15 78q20 5 44.5 11.5t50.5 14.5l20 6t19 6l17 -15q-12 -27 -25 -53t-28 -52q-21 -37 -44.5 -76t-49.5 -80v0zM148 454q31 -1 54.5 -25t23.5 -56q0 -28 -23 -52t-55 -24q-31 0 -54.5 22.5t-23.5 53.5
q0 32 23.5 56t54.5 24v1z" />
    <glyph glyph-name="less" unicode="&#x3c;" horiz-adv-x="606" 
d="M160 252l398 -183v-84l-509 230v74l509 230v-84l-398 -183v0z" />
    <glyph glyph-name="equal" unicode="=" horiz-adv-x="606" 
d="M555 200v-86h-504v86h504v0zM555 396v-86h-504v86h504v0z" />
    <glyph glyph-name="greater" unicode="&#x3e;" horiz-adv-x="606" 
d="M49 69l398 183l-398 183v84l509 -230v-74l-509 -230v84v0z" />
    <glyph glyph-name="question" unicode="?" horiz-adv-x="444" 
d="M194 144q31 -1 54.5 -25t23.5 -56q0 -28 -23 -51.5t-55 -23.5q-31 0 -54.5 22t-23.5 53q0 32 23.5 56t54.5 24v1zM78 497l-35 9q14 40 22.5 73t9.5 59q27 20 55 30.5t56 14.5q10 2 19.5 2.5t18.5 0.5h1.5h1.5q69 -1 126.5 -37.5t57.5 -115.5q0 -39 -10 -64t-32 -47
q-6 -7 -13.5 -13.5t-15.5 -13.5l-77 -63q-36 -31 -49.5 -53t-13.5 -41q1 -10 3.5 -18.5t6.5 -16.5l1 -1l-34 -14q-14 16 -20 36t-6 41q0 29 21 62.5t55 72.5q2 3 4.5 5.5t4.5 5.5q11 15 21.5 33t15.5 36q2 6 3 12.5t1 12.5q0 38 -27.5 61.5t-64.5 23.5q-28 0 -49.5 -6
t-26.5 -17l-31 -70v0z" />
    <glyph glyph-name="at" unicode="@" horiz-adv-x="747" 
d="M635 173h64q-43 -84 -124.5 -134.5t-176.5 -50.5q-146 0 -251 94t-105 244q0 149 99.5 251.5t249.5 102.5q139 0 226 -84.5t87 -192.5q0 -51 -16.5 -99t-51.5 -86l-6.5 -6.5l-7.5 -7.5q-18 -17 -42 -33t-50 -25q-12 -5 -24 -7.5t-23 -2.5q-35 0 -52 25.5t-19 56.5
q-4 -5 -7.5 -10t-7.5 -10q-21 -25 -43.5 -40.5t-57.5 -15.5q-61 0 -93.5 39.5t-32.5 100.5v5.5v5.5q5 78 65 142.5t140 64.5q33 0 54.5 -18t26.5 -50l2 1l15 60h94l-74 -274q-1 -7 -2.5 -13t-1.5 -12q1 -10 5.5 -17.5t15.5 -7.5q6 0 12.5 2t13.5 6q10 6 20.5 14.5t18.5 18.5
q8 8 14 15t10 13q18 25 31 55.5t19 62.5q2 12 3 23t1 22v9.5t-1 9.5q-7 76 -72.5 140t-182.5 64q-127 0 -213 -81.5t-86 -209.5q0 -134 91 -212t220 -78q70 0 129 36t97 93v1zM315 172q22 -1 40.5 16.5t32.5 39.5l10 18t8 16q7 16 13.5 35.5t10.5 39.5q4 17 6 33.5t2 30.5
q0 5 -0.5 10t-1.5 10q-3 18 -13.5 33.5t-31.5 15.5q-35 0 -62 -38t-43 -84q-10 -28 -15.5 -55t-5.5 -44q0 -6 0.5 -12t1.5 -12q3 -20 13.5 -37t34.5 -17v1z" />
    <glyph glyph-name="A" unicode="A" horiz-adv-x="778" 
d="M469 206h-251l-42 -112l-3.5 -14t-1.5 -11q1 -16 10 -24t19 -9l50 -2v-37q-12 0 -23 0.5t-21 0.5q-20 1 -37 1.5t-32 0.5q-14 0 -31.5 -0.5t-37.5 -1.5q-10 0 -21 -0.5t-23 -0.5v37l30 3q20 1 33.5 19t22.5 40l181 439l26 69l16 41l15 41h71l259 -605q8 -20 20 -31
t35 -14l24 -2v-37q-17 0 -32 0.5t-29 0.5q-28 1 -51 1.5t-43 0.5q-19 0 -42.5 -0.5t-51.5 -1.5q-14 0 -29 -0.5t-32 -0.5v37l53 3q8 0 14 7.5t6 20.5q0 5 -1.5 12t-4.5 14l-45 115v0zM342 516l-100 -254h204l-104 254v0z" />
    <glyph glyph-name="B" unicode="B" horiz-adv-x="667" 
d="M39 644v37q17 -1 32 -1.5t29 -0.5q28 -1 52 -1.5t43 -0.5h37.5t36.5 1h28.5t28.5 1q17 0 35 0.5t37 0.5h8h8q65 -1 119.5 -28t54.5 -107q0 -76 -54.5 -110t-123.5 -57v-1q96 -5 148.5 -42.5t52.5 -124.5q0 -91 -75 -152t-194 -61h-4.5h-4.5q-11 0 -22.5 0.5t-23.5 0.5
q-23 1 -47 1.5t-48 0.5q-21 0 -41.5 -0.5t-40.5 -1.5q-10 0 -19.5 -0.5t-18.5 -0.5v23l32 18q12 6 16 19.5t4 36.5v449q0 31 -1 51t-6 29q-4 8 -12.5 12t-28.5 5l-37 4v0zM265 348v-292q8 -3 15.5 -3.5t14.5 -1.5h12h12q80 0 111 42.5t31 108.5q0 84 -44.5 114.5
t-121.5 30.5l-30 1v0zM265 627v-227h30q67 -1 106 24.5t39 98.5q0 59 -29.5 83t-84.5 24q-15 0 -30 -1t-31 -3v1z" />
    <glyph glyph-name="C" unicode="C" horiz-adv-x="722" 
d="M692 87l-22 -49q-48 -30 -102 -41.5t-110 -13.5h-8.5h-9.5q-171 0 -283.5 93.5t-112.5 272.5q0 173 120 259t280 86q21 0 41 -0.5t39 -2.5q38 -4 78 -14t87 -30l6 -10q-4 -16 -7.5 -38t-7.5 -46q-2 -19 -4 -37.5t-4 -32.5l-39 1l-5 86q-37 37 -83 52.5t-97 15.5
q-124 0 -189 -78.5t-65 -197.5q0 -137 76.5 -226t218.5 -89q19 0 40 2.5t43 7.5q29 7 57.5 17.5t50.5 23.5l12 -11v0z" />
    <glyph glyph-name="D" unicode="D" horiz-adv-x="833" 
d="M120 95v448q0 31 -1 51t-6 29q-4 8 -12.5 12t-28.5 5l-37 4v37q17 -1 32 -1.5t29 -0.5q28 -1 52 -1.5t43 -0.5q24 0 55 0.5t65 1.5h28.5h28.5q21 1 41 1h39q161 0 249.5 -72t88.5 -240q0 -179 -125 -275.5t-283 -95.5h-2h-2h-2h-2q-12 0 -24.5 0.5t-25.5 0.5
q-6 0 -12 0.5t-12 0.5q-19 0 -37.5 0.5t-37.5 0.5h-12.5h-12.5q-19 0 -37.5 -0.5t-37.5 -1.5q-13 0 -26 -0.5t-27 -0.5v23l32 18q12 6 16 19.5t4 36.5v1zM261 627v-570q22 -5 43.5 -5.5t42.5 -0.5q149 0 219 74t70 224q0 149 -71.5 215t-242.5 66q-15 0 -30 -1t-31 -3v1z
" />
    <glyph glyph-name="E" unicode="E" horiz-adv-x="611" 
d="M265 620v-240q17 -2 34 -2.5t33 -0.5l66 1q26 -1 41 2.5t16 17.5l6 58h40q0 -10 -0.5 -19t-0.5 -18q0 -4 -0.5 -8.5t-0.5 -8.5q0 -14 -0.5 -27t-0.5 -27q0 -18 0.5 -36t1.5 -36q0 -9 0.5 -18t0.5 -18l-40 1l-6 50q-2 20 -16.5 28t-40.5 8l-66 1q-16 -1 -33 -1.5t-34 -2.5
v-266q32 -2 64 -3t64 -1q10 0 21 0.5t22 1.5q25 2 47 5.5t29 7.5q1 0 2 0.5t1 1.5l23 95h39l-11 -158l-5 -8q-25 -2 -58.5 -3t-68.5 -1h-16.5h-16.5h-46t-40 1q-10 0 -20.5 0.5t-20.5 0.5q-20 1 -40.5 1.5t-41.5 0.5t-41.5 -0.5t-40.5 -1.5q-10 0 -19.5 -0.5t-18.5 -0.5v23
l32 18q12 6 16 19.5t4 36.5v449q0 31 -1 51t-6 29q-4 8 -12.5 12t-28.5 5l-37 4v37q17 -1 32 -1.5t29 -0.5q28 -1 52 -1.5t43 -0.5q47 0 86 0.5t72 1.5q16 0 31.5 0.5t29.5 0.5h15t14 1h13.5h13.5h12t11 -1h19t18 -1q8 0 15.5 -0.5t14.5 -1.5l6 -6l-14 -142h-36l-8 75
q-1 8 -25.5 12t-53.5 5q-9 1 -18.5 1h-17.5q-32 0 -64 -0.5t-64 -2.5v1z" />
    <glyph glyph-name="F" unicode="F" horiz-adv-x="556" 
d="M254 620v-243q17 -2 34 -2.5t33 -0.5l51 1q26 -1 41 2.5t16 17.5l6 54h40q0 -9 -0.5 -17t-0.5 -17q-1 -17 -1.5 -34.5t-0.5 -35.5t0.5 -36t1.5 -36q0 -9 0.5 -18t0.5 -18l-40 1l-6 50q-2 20 -16.5 28t-40.5 8l-51 1q-16 -1 -33 -1.5t-34 -2.5v-186q0 -32 1.5 -52.5
t5.5 -29.5q3 -6 12.5 -9t28.5 -5l47 -2v-40q-13 0 -26 0.5t-26 0.5q-27 1 -55 1.5t-58 0.5t-58 -0.5t-53 -1.5q-12 0 -23.5 -0.5t-21.5 -0.5v40l37 3q20 1 29 4t12 9q5 9 6 29.5t1 51.5v409q0 31 -1 51t-6 29q-4 8 -12.5 12t-28.5 5l-37 4v37q17 -1 32 -1.5t29 -0.5
q28 -1 52 -1.5t43 -0.5q39 0 74.5 0.5t67.5 1.5q16 0 31.5 0.5t29.5 0.5h15t14 1h13.5h13.5h12t11 -1h19t18 -1q8 0 15.5 -0.5t14.5 -1.5l6 -6l-14 -142h-36l-8 75q-1 8 -25.5 12t-53.5 5q-9 1 -18.5 1h-17.5q-19 0 -47 -0.5t-58 -2.5h-3h-4v1z" />
    <glyph glyph-name="G" unicode="G" horiz-adv-x="833" 
d="M735 206v-163q-69 -28 -142 -44t-150 -16q-171 0 -283.5 93.5t-112.5 272.5q0 173 120 259t280 86q17 0 34 -0.5t34 -1.5q51 -3 102.5 -13t104.5 -32l6 -10q-4 -16 -7.5 -38t-7.5 -46q-2 -19 -4 -37.5t-4 -32.5l-39 1l-5 86q-26 29 -75.5 46t-104.5 21q-7 0 -14.5 0.5
t-15.5 0.5q-124 0 -189 -78.5t-65 -197.5q0 -130 67 -227t202 -97q25 0 48.5 3.5t47.5 10.5q7 3 15 5.5t16 5.5v133q0 22 -16.5 28.5t-40.5 7.5l-53 3v41q12 -1 24.5 -1.5t24.5 -0.5q25 -1 49.5 -1.5t48.5 -0.5q18 0 36.5 0.5t36.5 0.5q6 0 12 0.5t12 0.5q12 0 24.5 0.5
t24.5 0.5v-33q-3 -2 -6 -2.5t-6 -1.5q-18 -4 -23.5 -10.5t-5.5 -22.5v1z" />
    <glyph glyph-name="H" unicode="H" horiz-adv-x="833" 
d="M262 543v-158q11 -2 28.5 -2.5t52.5 -0.5l146 1q35 -1 52.5 -0.5t28.5 1.5v159q0 31 -1 51t-6 29q-3 6 -12 9.5t-29 4.5l-37 4v40q10 -1 21.5 -1.5t23.5 -0.5q25 -1 53 -1.5t58 -0.5t57.5 0.5t52.5 1.5q12 0 23.5 0.5t21.5 0.5v-39l-37 -3q-19 -2 -28.5 -5.5t-12.5 -9.5
q-4 -9 -5.5 -29t-1.5 -52v-407q0 -32 1.5 -52.5t5.5 -29.5q3 -6 12.5 -9t28.5 -5l37 -2v-40q-10 0 -21.5 0.5t-23.5 0.5q-25 1 -52.5 1.5t-57.5 0.5t-58 -0.5t-53 -1.5q-12 0 -23.5 -0.5t-21.5 -0.5v40l37 3q20 1 29 4t12 9q5 9 6 29.5t1 51.5v191q-11 0 -28.5 0.5
t-52.5 0.5l-146 1l-52.5 -1.5t-28.5 -1.5v-189q0 -32 1.5 -52.5t5.5 -29.5q3 -6 12.5 -9t28.5 -5l37 -2v-40q-10 0 -21.5 0.5t-23.5 0.5q-25 1 -52.5 1.5t-57.5 0.5t-58 -0.5t-53 -1.5q-12 0 -23.5 -0.5t-21.5 -0.5v40l37 3q20 1 29 4t12 9q5 9 6 29.5t1 51.5v409
q0 31 -1 51t-6 29q-3 6 -12 9.5t-29 4.5l-37 4v40q10 -1 21.5 -1.5t23.5 -0.5q25 -1 53 -1.5t58 -0.5t57.5 0.5t52.5 1.5q12 0 23.5 0.5t21.5 0.5v-39l-37 -3q-19 -2 -28.5 -5.5t-12.5 -9.5q-4 -9 -5.5 -29t-1.5 -52v1z" />
    <glyph glyph-name="I" unicode="I" horiz-adv-x="389" 
d="M265 543v-408q0 -32 1.5 -52.5t5.5 -29.5q3 -6 12.5 -9t28.5 -5l37 -2v-40q-10 0 -21.5 0.5t-23.5 0.5q-25 1 -52.5 1.5t-57.5 0.5t-58 -0.5t-53 -1.5q-12 0 -23.5 -0.5t-21.5 -0.5v40l37 3q20 1 29 4t12 9q5 9 6 29.5t1 51.5v409q0 31 -1 51t-6 29q-3 6 -12 9.5t-29 4.5
l-37 4v40q10 -1 21.5 -1.5t23.5 -0.5q25 -1 53 -1.5t58 -0.5t57.5 0.5t52.5 1.5q12 0 23.5 0.5t21.5 0.5v-39l-37 -3q-19 -2 -28.5 -5.5t-12.5 -9.5q-4 -9 -5.5 -29t-1.5 -52v1z" />
    <glyph glyph-name="J" unicode="J" horiz-adv-x="389" 
d="M265 543v-406v-3.5v-2.5q0 -44 -2 -81t-13 -71q-6 -20 -16.5 -40t-25.5 -42q-25 -35 -66 -65t-85 -40q-9 -3 -18.5 -4t-18.5 -1q-8 0 -15.5 1.5t-14.5 3.5l-1 89l11 6q2 -1 3.5 -2.5t3.5 -2.5q1 -1 2.5 -2t3.5 -2q12 -10 25.5 -18t30.5 -8q39 0 47 40t8 90v561
q0 31 -1 51t-6 29q-3 6 -12 9.5t-29 4.5l-37 4v40q10 -1 21.5 -1.5t23.5 -0.5q25 -1 53 -1.5t58 -0.5t57.5 0.5t52.5 1.5q12 0 23.5 0.5t21.5 0.5v-39l-37 -3q-19 -2 -28.5 -5.5t-12.5 -9.5q-4 -9 -5.5 -29t-1.5 -52v1z" />
    <glyph glyph-name="K" unicode="K" horiz-adv-x="778" 
d="M124 135v408q0 31 -1 51t-6 29q-3 6 -12 9.5t-29 4.5l-37 4v40q10 -1 21.5 -1.5t23.5 -0.5q25 -1 53 -1.5t58 -0.5t57.5 0.5t52.5 1.5q12 0 23.5 0.5t21.5 0.5v-39l-37 -3q-19 -2 -28.5 -5.5t-12.5 -9.5q-4 -9 -5.5 -29t-1.5 -52v-184q0 -4 2.5 -5.5t6.5 -1.5l188 185
q8 7 17.5 17t19.5 21l2 2t2 3q10 10 19.5 20.5t17.5 19.5t12 18t4 18v26q8 -1 15.5 -1.5t14.5 -0.5q4 0 8 -0.5t8 -0.5q11 0 22.5 -0.5t22.5 -0.5t22.5 0.5t23.5 0.5q3 0 7 0.5t8 0.5q7 0 15 0.5t15 0.5v-38q-2 -1 -4.5 -1.5t-4.5 -0.5q-29 -3 -54.5 -8t-46.5 -25l-222 -206
l266 -313q16 -20 37.5 -35.5t53.5 -15.5v-40q-8 0 -16.5 0.5t-17.5 0.5q-4 0 -8 0.5t-8 0.5q-13 0 -25.5 0.5t-25.5 0.5q-17 0 -34 -0.5t-34 -1.5q-8 0 -16.5 -0.5t-17.5 -0.5l-208 249q-5 5 -11 12t-12 15q-2 3 -5 6l-5 5q-12 14 -23.5 25t-19.5 15h-0.5h-0.5h-0.5h-0.5
q-4 0 -6 -2t-3 -5v-0.5v-1.5v-180q0 -32 1.5 -52.5t5.5 -29.5q3 -6 12.5 -9t28.5 -5l37 -2v-40q-10 0 -21.5 0.5t-23.5 0.5q-25 1 -52.5 1.5t-57.5 0.5t-58 -0.5t-53 -1.5q-12 0 -23.5 -0.5t-21.5 -0.5v40l37 3q20 1 29 4t12 9q5 9 6 29.5t1 51.5v1z" />
    <glyph glyph-name="L" unicode="L" horiz-adv-x="611" 
d="M265 543v-485q32 -2 64 -3t64 -1q10 0 21 0.5t22 1.5q25 2 47 5.5t29 7.5q1 0 2 0.5t1 1.5l23 103h39l-11 -166l-5 -8q-25 -2 -58.5 -3t-68.5 -1h-16.5h-16.5h-46t-40 1q-10 0 -20.5 0.5t-20.5 0.5q-20 1 -40.5 1.5t-41.5 0.5t-41.5 -0.5t-40.5 -1.5q-10 0 -19.5 -0.5
t-18.5 -0.5v23l32 18q12 6 16 19.5t4 36.5v449q0 31 -1 51t-6 29q-3 6 -12 9.5t-29 4.5l-37 4v40q10 -1 21.5 -1.5t23.5 -0.5q25 -1 53 -1.5t58 -0.5t57.5 0.5t52.5 1.5q12 0 23.5 0.5t21.5 0.5v-39l-37 -3q-19 -2 -28.5 -5.5t-12.5 -9.5q-4 -9 -5.5 -29t-1.5 -52v1z" />
    <glyph glyph-name="M" unicode="M" horiz-adv-x="1000" 
d="M883 543v-408q0 -32 1.5 -52.5t5.5 -29.5q3 -6 12.5 -9t28.5 -5l37 -2v-40q-10 0 -21.5 0.5t-23.5 0.5q-25 1 -52.5 1.5t-57.5 0.5t-58 -0.5t-53 -1.5q-12 0 -23.5 -0.5t-21.5 -0.5v40l37 3q20 1 29 4t12 9q5 9 6 29.5t1 51.5v413h-2l-204 -425q-3 -8 -7 -15.5t-7 -14.5
l-6 -12t-6 -13l-18 -40t-16 -37h-34l-8 20t-9 21q-4 10 -9 20.5t-10 20.5l-228 476h-2v-413q0 -32 1.5 -52.5t5.5 -29.5q4 -7 13 -11t28 -6l37 -2v-37q-9 0 -18.5 0.5t-19.5 0.5q-19 1 -38 1.5t-38 0.5q-14 0 -28.5 -0.5t-28.5 -0.5q-5 0 -10 -0.5t-10 -0.5q-9 0 -18.5 -0.5
t-19.5 -0.5v37l37 3q20 1 28.5 5t12.5 11q5 9 6 29.5t1 51.5v409q0 31 -1 51t-6 29q-4 8 -12.5 12t-28.5 5l-37 4v37q10 -1 20 -1.5t20 -0.5q20 -1 40 -1.5t40 -0.5t40 0.5t40 1.5q10 0 20 0.5t20 0.5q7 -16 17.5 -38.5t21.5 -46.5l0.5 -0.5t0.5 -1.5q10 -20 19 -39.5
t16 -34.5l158 -329l183 378q5 10 10.5 21.5t10.5 23.5l14 34t14 33q12 0 23.5 -0.5t21.5 -0.5q21 -1 38.5 -1.5t31.5 -0.5q15 0 32.5 0.5t37.5 1.5q11 0 22.5 0.5t23.5 0.5v-36l-37 -3q-19 -2 -28 -6t-13 -12q-4 -9 -5.5 -29t-1.5 -52v1z" />
    <glyph glyph-name="N" unicode="N" horiz-adv-x="833" 
d="M120 135v408q0 31 -1 51t-6 29q-4 8 -12.5 12t-28.5 5l-37 4v37q10 -1 20 -1.5t20 -0.5q20 -1 40 -1.5t40 -0.5q14 0 28 0.5t28 1.5q7 0 14 0.5t14 0.5q6 -8 12.5 -16.5t12.5 -16.5q4 -5 7 -9l6 -8l32 -42t33 -41l312 -363v359q0 31 -1 51t-6 29q-4 8 -12.5 12t-28.5 5
l-37 4v37q10 -1 19.5 -1.5t18.5 -0.5q5 0 10 -0.5t10 -0.5q14 0 28.5 -0.5t28.5 -0.5q19 0 38 0.5t38 1.5q10 0 19.5 0.5t18.5 0.5v-36l-37 -3q-19 -2 -28 -6t-13 -12q-4 -9 -5.5 -29t-1.5 -52v-453v-8.5v-7.5q0 -14 0.5 -27.5t1.5 -26.5q0 -9 0.5 -16t0.5 -15l-7 -4l-82 13
q-8 8 -15.5 16.5t-15.5 17.5q-8 8 -15.5 17t-15.5 18q-15 17 -30 34.5t-30 34.5l-324 391h-2v-391q0 -32 1.5 -52.5t5.5 -29.5q4 -7 13 -11t28 -6l37 -2v-37q-9 0 -18.5 0.5t-19.5 0.5q-19 1 -38 1.5t-38 0.5q-14 0 -28.5 -0.5t-28.5 -0.5q-5 0 -10 -0.5t-10 -0.5
q-9 0 -18.5 -0.5t-19.5 -0.5v37l37 3q20 1 28.5 5t12.5 11q5 9 6 29.5t1 51.5v1z" />
    <glyph glyph-name="O" unicode="O" horiz-adv-x="833" 
d="M427 695q168 -1 264 -90.5t96 -260.5q0 -177 -104 -269t-276 -92q-168 0 -264 89t-96 260q0 177 104 269.5t276 92.5v1zM427 639q-139 -1 -184.5 -89t-45.5 -201q0 -124 52 -217.5t158 -93.5q140 0 185 88t45 200q0 124 -52 218t-158 94v1z" />
    <glyph glyph-name="P" unicode="P" horiz-adv-x="611" 
d="M124 135v408q0 31 -1 51t-6 29q-4 8 -12.5 12t-28.5 5l-37 4v37q17 -1 32 -1.5t29 -0.5q28 -1 52 -1.5t43 -0.5q26 0 51 0.5t51 0.5q8 0 16.5 0.5t16.5 0.5q17 0 34 0.5t34 0.5h4.5h5.5q74 0 130 -31t56 -117q0 -100 -67.5 -157t-163.5 -57h-5.5t-5.5 1q-6 0 -11.5 1
t-11.5 2q-5 1 -9.5 1.5t-8.5 1.5l-17 36l10 10q4 -1 7.5 -2t6.5 -1q7 -2 14 -3t14 -1q53 0 78.5 39.5t25.5 86.5q0 62 -26.5 101t-94.5 39h-12t-12 -1q-11 0 -21.5 -2t-18.5 -6v-486q0 -32 1.5 -52.5t5.5 -29.5q3 -6 12.5 -9t28.5 -5l47 -2v-40q-13 0 -26 0.5t-26 0.5
q-27 1 -55 1.5t-58 0.5t-58 -0.5t-53 -1.5q-12 0 -23.5 -0.5t-21.5 -0.5v40l37 3q20 1 29 4t12 9q5 9 6 29.5t1 51.5v1z" />
    <glyph glyph-name="Q" unicode="Q" horiz-adv-x="833" 
d="M606 -174l-199 54q-24 7 -48.5 12.5t-49.5 5.5h-5.5h-4.5q-11 -1 -28 -8.5t-35 -18.5q-6 -4 -12.5 -8.5t-12.5 -8.5l-11 31q16 13 31.5 25t31.5 23q23 16 47 29.5t48 22.5v2q-146 11 -228.5 99t-82.5 246q0 177 104 269.5t276 92.5q168 0 264 -89.5t96 -260.5
q0 -177 -104 -269t-276 -92h-17.5t-15.5 1l-2 -2q2 0 4.5 -0.5t4.5 -1.5q26 -5 50 -10.5t43 -11.5l120 -42q24 -8 53 -15t59 -7q9 0 19.5 3t21.5 7q4 1 7.5 2.5t7.5 2.5q5 2 9.5 4t9.5 4v-37l-103 -64q-6 0 -12 0.5t-12 0.5q-12 1 -24 3.5t-24 5.5v0zM427 639
q-139 -1 -184.5 -89t-45.5 -201q0 -124 52 -217.5t158 -93.5q140 0 185 88t45 200q0 124 -52 218t-158 94v1z" />
    <glyph glyph-name="R" unicode="R" horiz-adv-x="722" 
d="M124 135v408q0 31 -1 51t-6 29q-4 8 -12.5 12t-28.5 5l-37 4v37q17 -1 32 -1.5t30 -0.5q28 -1 54.5 -1.5t51.5 -0.5q26 0 51 0.5t51 0.5q8 0 16.5 0.5t16.5 0.5q17 0 34 0.5t34 0.5h4.5h5.5q74 0 130 -31t56 -117q0 -66 -43.5 -110t-105.5 -67l181 -273q5 -9 13 -17
t16 -15q5 -4 12.5 -6.5t17.5 -5.5q3 0 5.5 -0.5t5.5 -1.5v-39q-8 0 -16 0.5t-16 0.5q-4 0 -8 0.5t-8 0.5q-13 0 -25 0.5t-24 0.5q-15 0 -30 -0.5t-30 -1.5q-7 0 -14.5 -0.5t-15.5 -0.5l-224 347l7 18q5 -2 9 -2h8q62 1 102.5 39.5t40.5 104.5q0 62 -38 94t-97 32h-12t-12 -1
q-11 0 -21.5 -2t-18.5 -6v-486q0 -32 1.5 -52.5t5.5 -29.5q3 -6 12.5 -9t28.5 -5l37 -2v-40q-10 0 -21.5 0.5t-23.5 0.5q-25 1 -52.5 1.5t-57.5 0.5t-58 -0.5t-53 -1.5q-12 0 -23.5 -0.5t-21.5 -0.5v40l37 3q20 1 29 4t12 9q5 9 6 29.5t1 51.5v1z" />
    <glyph glyph-name="S" unicode="S" horiz-adv-x="611" 
d="M72 202h40l7 -88q13 -24 40.5 -41.5t57.5 -26.5q16 -5 31 -7.5t28 -2.5q64 0 110.5 33.5t46.5 98.5q0 32 -20 56t-63 37l-140 43q-63 18 -104.5 61.5t-41.5 107.5q0 120 77.5 170.5t186.5 50.5q16 0 31.5 -1t31.5 -3q32 -3 63 -10.5t60 -19.5l5 -11q-6 -20 -9.5 -50.5
t-4.5 -62.5v-15.5v-14.5l-41 1l-6 82q-17 18 -42.5 31t-53.5 19q-9 2 -18.5 3t-18.5 1q-70 0 -103.5 -35.5t-33.5 -85.5q0 -34 25.5 -58.5t80.5 -38.5l114 -29q69 -19 110 -62t41 -111q0 -127 -89.5 -183.5t-203.5 -56.5h-10.5h-11.5q-48 2 -96 13t-91 32q9 44 12 87t3 86v1
z" />
    <glyph glyph-name="T" unicode="T" horiz-adv-x="667" 
d="M404 619v-484q0 -32 1.5 -52.5t5.5 -29.5q3 -6 12.5 -9t28.5 -5l37 -2v-40q-10 0 -21.5 0.5t-23.5 0.5q-25 1 -52.5 1.5t-57.5 0.5t-58 -0.5t-53 -1.5q-12 0 -23.5 -0.5t-21.5 -0.5v40l37 3q20 1 29 4t12 9q5 9 6 29.5t1 51.5v485h-117q-1 -1 -2 -1h-2q-19 0 -36 -1.5
t-22 -7.5q-3 -4 -5.5 -10t-3.5 -14l-5 -68h-40q-1 43 -3.5 77.5t-7.5 66.5q0 4 -0.5 7.5t-1.5 6.5l6 6q26 -1 52.5 -1.5t52.5 -0.5q52 -1 103.5 -1.5t101.5 -0.5q51 0 102.5 0.5t103.5 1.5q26 0 52.5 0.5t52.5 0.5l6 -4q-1 -4 -1.5 -7.5t-0.5 -7.5q-5 -32 -7.5 -66.5
t-3.5 -78.5l-40 1l-5 69q-1 7 -3.5 13t-5.5 10q-5 6 -22 7.5t-36 1.5h-2h-2l-117 1v0z" />
    <glyph glyph-name="U" unicode="U" horiz-adv-x="778" 
d="M111 177v366q0 31 -1 51t-6 29q-4 8 -12.5 12t-28.5 5l-37 4v37q10 -1 21.5 -1.5t23.5 -0.5q25 -1 53 -1.5t58 -0.5t57.5 0.5t52.5 1.5q12 0 23.5 0.5t21.5 0.5v-36l-37 -3q-19 -2 -28 -6t-13 -12q-4 -9 -5.5 -29t-1.5 -52v-247q0 -107 25.5 -169t152.5 -62
q125 0 155.5 64t30.5 173v242q0 31 -1 51t-6 29q-4 8 -12.5 12t-28.5 5l-37 4v37q10 -1 19.5 -1.5t18.5 -0.5q5 0 10 -0.5t10 -0.5q14 0 28.5 -0.5t28.5 -0.5q19 0 38 0.5t38 1.5q10 0 19.5 0.5t18.5 0.5v-36l-37 -3q-19 -2 -28 -6t-13 -12q-4 -9 -5.5 -29t-1.5 -52v-291
q0 -138 -71 -203t-207 -65q-142 0 -214 54t-72 139v1z" />
    <glyph glyph-name="V" unicode="V" horiz-adv-x="778" 
d="M285 550l157 -387l142 353q13 31 22 57.5t9 39.5q0 14 -11 20t-26 7l-46 4v37q12 -1 23.5 -1.5t21.5 -0.5q21 -1 39 -1.5t32 -0.5q15 0 32 0.5t38 1.5q10 0 21.5 0.5t23.5 0.5v-36l-32 -3q-16 -2 -27 -14t-20 -34l-208 -497q-6 -16 -12 -31t-11 -29q-4 -10 -7.5 -20
t-7.5 -19h-76l-239 572q-2 4 -4.5 10t-5.5 12q-9 18 -21 32.5t-31 16.5l-41 4v37q17 -1 32 -1.5t29 -0.5q28 -1 52 -1.5t43 -0.5q20 0 43.5 0.5t53.5 1.5q15 0 31.5 0.5t35.5 0.5v-36l-50 -3q-11 -2 -18.5 -7.5t-7.5 -12.5q0 -8 2.5 -18.5t6.5 -21.5q1 -4 3 -8.5t3 -9.5
q2 -4 3.5 -7.5t2.5 -6.5v1z" />
    <glyph glyph-name="W" unicode="W" horiz-adv-x="1000" 
d="M321 210l149 352q6 14 12.5 29.5t13.5 31.5q6 16 12.5 31.5t12.5 30.5l45 1q12 -35 24 -68.5t25 -65.5l136 -339h2l96 375l2 8t1 8q1 3 1 7.5v8.5q0 9 -10 14t-22 6h-1.5h-1.5l-46 4v37q11 -1 21.5 -1.5t20.5 -0.5q19 -1 35.5 -1.5t30.5 -0.5t30 0.5t36 1.5q9 0 20 0.5
t22 0.5v-36l-33 -3q-13 -2 -23.5 -20t-19.5 -50l-122 -431q-6 -24 -11.5 -48t-10.5 -48q-3 -12 -5.5 -24t-5.5 -23h-73q-4 10 -7.5 20.5t-7.5 20.5q-5 16 -11 31.5t-12 31.5l-149 376l-155 -355q-8 -20 -15.5 -39.5t-14.5 -39.5q-4 -12 -8 -23.5t-9 -22.5h-70l-139 602
q-5 21 -14 30.5t-23 10.5l-32 4v37q17 -1 32 -1.5t29 -0.5q28 -1 52 -1.5t43 -0.5q20 0 42.5 0.5t45.5 1.5h1.5h1.5q11 0 21.5 0.5t21.5 0.5v-36l-42 -3q-2 -1 -4 -1.5t-4 -1.5q-8 -2 -15 -8t-7 -13q0 -5 1 -12.5t2 -15.5l81 -379h2v0z" />
    <glyph glyph-name="X" unicode="X" horiz-adv-x="667" 
d="M22 658l183 37q25 -19 41.5 -42.5t31.5 -49.5l95 -168l165 243h111v-34l-28 -3q-16 -3 -25 -10.5t-17 -18.5q-1 -2 -2.5 -4t-3.5 -4l-170 -223l159 -275l6 -12t7 -12q9 -16 21 -30t29 -16l25 -2v-37q-8 0 -16 0.5t-16 0.5q-4 0 -8 0.5t-7 0.5q-12 0 -24 0.5t-24 0.5
q-16 0 -32 -0.5t-32 -1.5q-8 0 -16 -0.5t-16 -0.5l-149 266l-140 -201q-7 -11 -13 -21.5t-11 -20.5q-3 -5 -6 -10.5t-6 -9.5h-117v34l31 3q8 0 15.5 3.5t12.5 7.5q1 2 2.5 3.5l2.5 2.5l199 262l-94 166q-5 8 -10.5 17t-10.5 17q-20 32 -38.5 55.5t-28.5 33.5t-19.5 13.5
t-19.5 3.5q-4 0 -8 -0.5t-8 -1.5l-8 -2l-8 -2l-5 42v0z" />
    <glyph glyph-name="Y" unicode="Y" horiz-adv-x="667" 
d="M395 356l188 322h77v-19l-176 -261q-13 -20 -23.5 -40t-20.5 -41q-2 -5 -4.5 -10t-4.5 -10v-162q0 -32 1.5 -52.5t5.5 -29.5q3 -6 12.5 -9t28.5 -5l37 -2v-40q-10 0 -21.5 0.5t-23.5 0.5q-25 1 -52.5 1.5t-57.5 0.5t-58 -0.5t-53 -1.5q-12 0 -23.5 -0.5t-21.5 -0.5v40
l37 3q20 1 29 4t12 9q5 9 6 29.5t1 51.5v140q-12 27 -21.5 44.5t-17.5 31.5q-1 2 -2.5 4t-2.5 4l-101 164q-4 5 -8.5 11.5t-9.5 12.5q-3 5 -7 9.5t-7 9.5l-10 12t-10 11q-2 3 -4.5 5t-4.5 4q-15 14 -31 19t-38 5v38l159 36q41 -24 67 -60.5t47 -76.5l107 -202v0z" />
    <glyph glyph-name="Z" unicode="Z" horiz-adv-x="667" 
d="M540 536l-325 -479h276q43 -1 60 9.5t21 28.5l15 79h40q-4 -22 -7 -47.5t-5 -52.5q-2 -20 -3 -40t-1 -37q-21 0 -42.5 0.5t-43.5 0.5q-53 1 -104.5 1.5t-96.5 0.5q-64 0 -137.5 -1t-162.5 -2v38q11 13 22 27.5t23 29.5l30 40t29 41l306 447h-222q-54 -1 -68 -9t-19 -38
l-8 -54h-37v162q29 -1 55.5 -1.5t51.5 -0.5q49 -1 90 -1.5t75 -0.5q35 0 75.5 0.5t89.5 1.5q24 0 50.5 0.5t55.5 0.5v-34q-9 -11 -18 -22.5t-18 -23.5q-8 -10 -15.5 -20.5t-15.5 -21.5q-4 -6 -8 -11.5t-8 -11.5v1z" />
    <glyph glyph-name="bracketleft" unicode="[" horiz-adv-x="333" 
d="M291 720v-38h-49q-3 -1 -6.5 -1t-6.5 -1q-18 -3 -33.5 -12.5t-15.5 -26.5q0 -21 -0.5 -41.5t-0.5 -41.5v-14v-14q-1 -55 -1.5 -110.5t-0.5 -112.5q0 -56 0.5 -112t1.5 -111v-14v-14q0 -21 0.5 -41t0.5 -41q0 -17 15.5 -26.5t33.5 -12.5q3 -1 6.5 -1h6.5h49v-38
q-9 0 -17.5 0.5t-16.5 0.5q-11 1 -20.5 1t-19.5 1h-12h-12q-15 0 -31.5 -0.5t-38.5 -1.5q-11 0 -23 -0.5t-27 -0.5q1 39 1.5 77t1.5 77q2 65 3 129.5t1 129.5q0 51 -1 102.5t-2 102.5q0 13 -0.5 25.5t-0.5 25.5q-1 39 -1.5 77t-1.5 77q15 0 27 -0.5t23 -0.5q22 -1 38.5 -1.5
t31.5 -0.5h12h12q10 1 19.5 1t20.5 1q8 0 16.5 0.5t17.5 0.5v1z" />
    <glyph glyph-name="backslash" unicode="\" horiz-adv-x="606" 
d="M72 720h90l372 -720h-90l-372 720v0z" />
    <glyph glyph-name="bracketright" unicode="]" horiz-adv-x="333" 
d="M42 682v38q9 -1 17.5 -1.5t16.5 -0.5q11 -1 20.5 -1t19.5 -1h12h12q16 0 32 0.5t38 1.5q11 0 23.5 0.5t26.5 0.5q-1 -39 -1.5 -77t-1.5 -77q0 -13 -0.5 -25.5t-0.5 -25.5q-1 -51 -2 -102.5t-1 -102.5q0 -65 1 -129.5t3 -129.5q1 -39 1.5 -77t1.5 -77q-14 0 -26.5 0.5
t-23.5 0.5q-22 1 -38 1.5t-32 0.5h-12h-12q-10 -1 -19.5 -1t-20.5 -1q-8 0 -16.5 -0.5t-17.5 -0.5v38h49h6.5t6.5 1q18 3 33.5 12.5t15.5 26.5q0 21 0.5 41t0.5 41v14v14q1 55 1.5 111t0.5 112q0 57 -0.5 112.5t-1.5 110.5v14v14q0 21 -0.5 41.5t-0.5 41.5q0 17 -15.5 26.5
t-33.5 12.5q-3 1 -6.5 1h-6.5l-49 1v0z" />
    <glyph glyph-name="asciicircum" unicode="^" horiz-adv-x="606" 
d="M147 275h-95l206 403h90l206 -403h-95l-156 294l-156 -294v0z" />
    <glyph glyph-name="underscore" unicode="_" horiz-adv-x="500" 
d="M500 -125h-500v50h500v-50v0z" />
    <glyph glyph-name="grave" unicode="`" horiz-adv-x="333" 
d="M200 506l-131 81q-2 0 -3.5 1t-3.5 2q-1 1 -1.5 1t-0.5 1q-16 9 -29 20.5t-13 33.5q0 18 11 31t32 13q18 0 30 -6.5t23 -16.5q3 -4 6.5 -7t6.5 -7l129 -147h-56v0z" />
    <glyph glyph-name="a" unicode="a" horiz-adv-x="500" 
d="M211 257l88 18q0 52 -24 84.5t-80 32.5q-5 0 -11 -0.5t-13 -1.5q-11 -2 -20.5 -5t-11.5 -7l-22 -49l-30 7v69l53 32q32 19 62 26t54 7q65 0 115 -31.5t50 -108.5v-2.5v-3.5q0 -10 -0.5 -20.5t-0.5 -20.5q-1 -20 -1.5 -40.5t-0.5 -41.5q0 -15 0.5 -30.5t0.5 -31.5
q0 -5 0.5 -10.5t0.5 -10.5q0 -10 0.5 -20.5t0.5 -20.5q1 -19 6.5 -29t20.5 -12l30 -2v-37q-8 0 -15.5 0.5t-15.5 0.5q-8 1 -16 1t-16 1h-13h-12q-14 0 -28.5 -0.5t-29.5 -1.5q-8 0 -16 -0.5t-17 -0.5l-5 8l5 62l-93 -72q-7 -6 -16 -8.5t-18 -2.5q-6 -1 -11 -1h-10
q-55 0 -83 34t-28 87q0 6 0.5 11.5t0.5 11.5q3 24 13.5 46.5t31.5 36.5q22 15 47.5 24.5t51.5 15.5q7 2 13.5 3.5t12.5 2.5v1zM299 115v118l-45 -12q-3 -2 -5.5 -2.5t-5.5 -1.5q-35 -10 -58 -26.5t-23 -61.5q0 -31 16 -45.5t38 -14.5q6 0 13 1.5t13 3.5q13 5 25 12t21 15
q3 4 6 7t5 6v1z" />
    <glyph glyph-name="b" unicode="b" horiz-adv-x="611" 
d="M211 714v-331l61 49q19 14 42 26t62 12q80 0 130 -53.5t50 -132.5q0 -41 -9 -75t-23 -61q-16 -33 -42 -55.5t-54 -41.5l-6 -4l-6 -4q-4 -3 -8 -5.5t-9 -5.5q-27 -19 -57 -34t-65 -15q-44 0 -77 10.5t-59 25.5l-39 -31l-22 8q2 15 3.5 35.5t2.5 41.5q2 25 2.5 48.5
t0.5 39.5v407q0 42 -4 55t-22 14l-53 4v36q35 3 64 7.5t57 12.5l72 23l8 -6v0zM211 331v-225q17 -27 44 -41.5t58 -14.5q56 0 81.5 40t32.5 88l2 24t1 23q0 60 -28.5 107.5t-96.5 47.5q-4 0 -8.5 -0.5t-8.5 -0.5q-23 -4 -44.5 -16.5t-32.5 -32.5v1z" />
    <glyph glyph-name="c" unicode="c" horiz-adv-x="444" 
d="M390 297h-36l-7 60q-2 14 -18.5 24t-35.5 14q-9 2 -17 3t-15 1q-59 0 -79 -41.5t-21 -91.5v-4v-4q0 -77 36.5 -141t125.5 -64q20 0 40 4.5t42 14.5l9 -9l-21 -46q-26 -15 -54.5 -23t-58.5 -10q-4 -1 -8.5 -1h-8.5q-117 0 -171.5 66.5t-54.5 169.5q0 28 3 53.5t17 51.5
q12 23 36 46t65 48l52 32q23 13 46.5 16.5t52.5 3.5q22 0 44.5 -5t49.5 -15l7 -12q-7 -34 -11.5 -69t-8.5 -73v1z" />
    <glyph glyph-name="d" unicode="d" horiz-adv-x="611" 
d="M508 714v-614q0 -19 1 -29.5t3 -18.5q2 -7 9 -11t23 -6l33 -1v-37h-4h-4q-8 0 -16.5 0.5t-16.5 0.5q-20 1 -38 1.5t-32 0.5q-8 0 -20.5 -0.5t-26.5 -1.5q-8 0 -16 -0.5t-17 -0.5l-5 8l5 75l-104 -85q-7 -6 -16 -8.5t-18 -2.5q-6 -1 -11 -1h-10q-89 0 -136 67t-49 148v3.5
v2.5q0 76 20 120t64 73l72 48q17 10 39 17.5t47 7.5q15 0 26 -1.5t22 -4.5q8 -2 16 -5t18 -6l20 -7v122q0 42 -4 55t-22 14l-53 4v36q35 3 64 7.5t57 12.5l72 23l8 -6v0zM386 160v184q-19 26 -48.5 44t-62.5 18q-67 0 -86.5 -47.5t-20.5 -104.5v-3.5v-2.5q0 -12 1 -25.5
t4 -27.5q8 -44 34 -81t76 -37q5 0 10 0.5t10 1.5q31 5 57 25.5t26 54.5v1z" />
    <glyph glyph-name="e" unicode="e" horiz-adv-x="500" 
d="M303 223h-131q0 -74 40.5 -122t118.5 -48q12 0 25 2.5t27 6.5q15 5 29 12t27 14l12 -14l-22 -48q-23 -13 -43 -21t-39 -13t-37.5 -7t-40.5 -2q-109 0 -168 61.5t-59 168.5q0 62 16 115.5t79 90.5l47 29q19 10 39.5 16t42.5 6q83 0 139 -44t56 -132v-51q-11 -4 -22.5 -6.5
t-22.5 -4.5q-30 -6 -59.5 -8t-53.5 -2v1zM252 415q-43 -1 -64.5 -35t-21.5 -105q7 0 14 -0.5t14 -0.5q14 -1 28 -1.5t28 -0.5t28 0.5t28 1.5q7 0 14 0.5t14 0.5q0 9 -0.5 19t-1.5 20q-3 37 -19.5 68.5t-60.5 31.5v1z" />
    <glyph glyph-name="f" unicode="f" horiz-adv-x="389" 
d="M381 714v-97l-16 -7q-9 5 -20 10.5t-22 8.5q-5 2 -10.5 3t-10.5 1q-46 0 -54.5 -26.5t-8.5 -65.5v-107q5 -1 9.5 -1h9.5q29 0 57.5 1.5t54.5 2.5l4 -7l-11 -58h-124v-272q0 -19 1 -29.5t3 -18.5q2 -7 15 -11.5t28 -5.5h1.5h1.5l45 -1v-37q-17 0 -31.5 0.5t-28.5 0.5
q-17 1 -32.5 1t-31.5 1h-17h-18h-8.5h-9.5q-17 0 -35 -0.5t-37 -1.5q-12 0 -24.5 -0.5t-26.5 -0.5v37l41 2q16 0 26 4.5t12 11.5q2 8 3 18.5t1 28.5v273l-79 -5v24q21 9 41 20t38 24v44q0 41 3.5 63t18.5 41q6 7 14 15t19 17l74 63q30 24 48 31.5t34 9.5h6h6q5 0 10 -0.5
t11 -0.5l10 -2t10 -3v1z" />
    <glyph glyph-name="g" unicode="g" horiz-adv-x="556" 
d="M529 368l-77 4q4 -17 4.5 -31.5t0.5 -27.5q0 -74 -56.5 -116t-124.5 -51q-8 -1 -16.5 -1.5t-16.5 -0.5h-8.5h-9.5q-7 1 -14 1.5t-12 0.5q-12 -7 -20.5 -16.5t-8.5 -23.5q0 -13 11 -21t35 -8h4h5q17 0 34.5 0.5t34.5 1.5q29 1 54.5 1.5t45.5 0.5q71 0 106 -31.5t35 -87.5
q0 -118 -90 -172.5t-198 -55.5h-1.5h-1.5q-13 0 -26 0.5t-26 2.5q-62 8 -114 40t-52 104v3.5v3.5q2 14 8 27.5t18 22.5l81 48q-28 6 -48 20t-20 42q0 16 3.5 29.5t13.5 22.5l71 55q-47 12 -76.5 49t-29.5 85q0 44 18.5 78t48.5 58q32 26 71.5 35.5t80.5 9.5q10 0 19.5 -0.5
t19.5 -1.5q32 -4 61.5 -14t49.5 -27q8 -1 16.5 -1h16.5q21 0 42 1.5t43 3.5l-5 -63v0zM274 -216q10 0 20 1.5t21 3.5q41 10 75 38.5t34 72.5q0 55 -27 68t-85 16q-9 1 -19 1h-21h-8h-8q-22 -1 -42.5 -2.5t-33.5 -5.5q-1 0 -2.5 -0.5t-2.5 -1.5q-21 -8 -38 -31t-17 -55
q0 -51 37 -74t81 -29q9 -1 18 -1.5t18 -0.5v0zM251 421q-46 -1 -63 -33.5t-18 -71.5v-1.5v-1.5q0 -8 0.5 -16t1.5 -16q5 -34 23 -62.5t58 -28.5q49 0 65 33.5t16 73.5v12t-1 12q-3 37 -20 68t-62 31v1z" />
    <glyph glyph-name="h" unicode="h" horiz-adv-x="611" 
d="M95 100v468q0 42 -4 55t-22 14l-45 4v36q29 3 57 7.5t56 12.5l72 23l8 -6v-324l80 62q7 4 14 7.5t14 5.5q13 4 25.5 4.5t22.5 0.5q6 0 11.5 -0.5t11.5 -0.5q24 -3 46.5 -13t38.5 -26q26 -27 31.5 -64t5.5 -81v-185q0 -19 1 -29.5t3 -18.5q2 -7 9 -11t23 -6l33 -1v-37
q-9 0 -17.5 0.5t-16.5 0.5q-11 1 -20.5 1t-19.5 1h-12h-12q-18 0 -34 -0.5t-30 -1.5q-8 0 -15 -0.5t-14 -0.5v272q0 36 -6 57.5t-20 34.5q-13 13 -30.5 18t-44.5 5q-24 0 -44.5 -15.5t-29.5 -33.5q-2 -5 -3 -10t-1 -9v-216q0 -19 1 -29.5t3 -18.5q2 -7 9 -11t23 -6l35 -1
v-37h-7.5h-6.5q-7 1 -14.5 1h-14.5q-22 1 -44.5 1.5t-47.5 0.5q-22 0 -43.5 -0.5t-42.5 -1.5q-11 0 -21.5 -0.5t-21.5 -0.5v37l35 2q16 1 23 5t9 11q2 8 3 18.5t1 28.5v1z" />
    <glyph glyph-name="i" unicode="i" horiz-adv-x="333" 
d="M105 100v219q0 42 -4 55t-22 14l-45 4v36q3 -1 6 -0.5t7 1.5q25 3 50 7t50 12l70 23l10 -6v-365q0 -19 1 -29.5t3 -18.5q2 -7 9 -11t23 -6l35 -1v-37h-7.5h-6.5q-7 1 -14.5 1h-14.5q-22 1 -44.5 1.5t-47.5 0.5q-22 0 -43.5 -0.5t-42.5 -1.5q-11 0 -21.5 -0.5t-21.5 -0.5
v37l35 2q16 1 23 5t9 11q2 8 3 18.5t1 28.5v1zM162 706q32 -1 53.5 -22.5t21.5 -54.5q0 -31 -22.5 -52.5t-52.5 -21.5t-52.5 21.5t-22.5 52.5q0 33 22 54.5t53 21.5v1z" />
    <glyph glyph-name="j" unicode="j" horiz-adv-x="333" 
d="M105 -38v357q0 42 -4 55t-22 14l-45 4v36q3 -1 6 -0.5t7 1.5q25 3 50 7t50 12l70 23l10 -6v-367q0 -99 -9.5 -167.5t-48.5 -120.5q-18 -24 -38 -41t-41 -26q-10 -4 -20.5 -6.5t-20.5 -2.5q-9 0 -18 0.5t-18 1.5l-10 35l4 6h23q22 0 36.5 11t21.5 33q10 29 13.5 63t3.5 78
v0zM166 706q32 -1 53.5 -22.5t21.5 -54.5q0 -31 -22.5 -52.5t-52.5 -21.5t-52.5 21.5t-22.5 52.5q0 33 22 54.5t53 21.5v1z" />
    <glyph glyph-name="k" unicode="k" horiz-adv-x="611" 
d="M100 100v468q0 42 -4 55t-22 14l-53 4v36q35 3 64 7.5t57 12.5l72 23l8 -6v-465q12 9 24 19.5t24 21.5q15 13 30 27t28 28l107 114h130v-38h-31q-13 -1 -26 -6.5t-22 -12.5l-62 -44q-14 -11 -27.5 -23.5t-25.5 -24.5l-13 -13l-12 -12l196 -219q2 -3 4.5 -6t5.5 -6
q9 -7 20 -13.5t25 -7.5v-33h-172q-6 8 -19 24t-28 33q0 1 -1 1.5t-1 1.5q-11 13 -20.5 24.5t-17.5 20.5l-106 121h-10v-126q0 -19 1 -29.5t3 -18.5q2 -7 9 -11t23 -6l35 -1v-37h-7.5h-6.5q-7 1 -14.5 1h-14.5q-22 1 -44.5 1.5t-47.5 0.5q-22 0 -43.5 -0.5t-42.5 -1.5
q-11 0 -21.5 -0.5t-21.5 -0.5v37l35 2q16 1 23 5t9 11q2 8 3 18.5t1 28.5v1z" />
    <glyph glyph-name="l" unicode="l" horiz-adv-x="333" 
d="M24 641v36q35 3 64 7.5t57 12.5l72 23l8 -6v-614q0 -19 1 -29.5t3 -18.5q2 -7 9 -11t23 -6l35 -1v-37h-7.5h-6.5q-7 1 -14.5 1h-14.5q-22 1 -44.5 1.5t-47.5 0.5q-22 0 -43.5 -0.5t-42.5 -1.5q-11 0 -21.5 -0.5t-21.5 -0.5v37l35 2q16 1 23 5t9 11q2 8 3 18.5t1 28.5v469
q0 42 -4 55t-22 14l-53 4v0z" />
    <glyph glyph-name="m" unicode="m" horiz-adv-x="889" 
d="M95 100v219q0 42 -4 55t-22 14l-45 4v36q45 0 85 11t79 23q6 2 11.5 4t11.5 4l6 -5v-75l80 62q7 4 14 7.5t14 5.5q13 4 25.5 4.5t22.5 0.5q44 0 78.5 -19.5t48.5 -61.5l80 63q7 4 14 7.5t14 5.5q13 4 25.5 4.5t22.5 0.5q80 0 109.5 -43t29.5 -142v-185q0 -19 1 -29.5
t3 -18.5q2 -7 9 -11t23 -6l33 -1v-37q-9 0 -17.5 0.5t-16.5 0.5q-11 1 -20.5 1t-19.5 1h-12h-12q-15 0 -30.5 -0.5t-31.5 -1.5q-8 0 -15.5 -0.5t-15.5 -0.5v272q0 36 -6 57.5t-20 34.5q-13 13 -29 18t-34 5q-24 0 -44.5 -15.5t-29.5 -33.5q-2 -5 -3 -10t-1 -9v-216
q0 -19 1 -29.5t3 -18.5q2 -7 9 -11t23 -6l35 -1v-37h-7.5h-6.5q-7 1 -14.5 1h-14.5q-22 1 -44.5 1.5t-47.5 0.5q-22 0 -43.5 -0.5t-41.5 -1.5q-10 0 -20 -0.5t-20 -0.5v37l31 2q16 0 23 4.5t9 11.5q2 8 3 18.5t1 28.5v170q0 36 -6 57.5t-20 34.5q-13 13 -29 18t-34 5
q-24 0 -44.5 -15.5t-29.5 -33.5q-2 -5 -3 -10t-1 -9v-216q0 -19 1 -29.5t3 -18.5q2 -7 9 -11t23 -6l27 -1v-37q-9 0 -18 0.5t-19 0.5q-20 1 -42.5 1.5t-47.5 0.5q-22 0 -43.5 -0.5t-42.5 -1.5q-11 0 -21.5 -0.5t-21.5 -0.5v37l35 2q16 1 23 5t9 11q2 8 3 18.5t1 28.5v1z" />
    <glyph glyph-name="n" unicode="n" horiz-adv-x="611" 
d="M95 100v219q0 42 -4 55t-22 14l-45 4v36q45 0 85 11t79 23q6 2 11.5 4t11.5 4l6 -5v-75l80 62q7 4 14 7.5t14 5.5q13 4 25.5 4.5t22.5 0.5q6 0 11.5 -0.5t11.5 -0.5q24 -3 46.5 -13t38.5 -26q26 -27 31.5 -64t5.5 -81v-185q0 -19 1 -29.5t3 -18.5q2 -7 9 -11t23 -6l33 -1
v-37q-9 0 -17.5 0.5t-16.5 0.5q-11 1 -20.5 1t-19.5 1h-12h-12q-18 0 -34 -0.5t-30 -1.5q-8 0 -15 -0.5t-14 -0.5v273q0 35 -6 56.5t-20 34.5q-13 13 -30.5 18t-44.5 5q-24 0 -44.5 -15.5t-29.5 -33.5q-2 -5 -3 -10t-1 -9v-216q0 -19 1 -29.5t3 -18.5q2 -7 9 -11t23 -6
l35 -1v-37h-7.5h-6.5q-7 1 -14.5 1h-14.5q-22 1 -44.5 1.5t-47.5 0.5q-22 0 -43.5 -0.5t-42.5 -1.5q-11 0 -21.5 -0.5t-21.5 -0.5v37l35 2q16 1 23 5t9 11q2 8 3 18.5t1 28.5v1z" />
    <glyph glyph-name="o" unicode="o" horiz-adv-x="556" 
d="M285 471q115 -1 173.5 -62t58.5 -173q0 -121 -64 -187t-189 -66q-115 0 -169.5 67.5t-54.5 173.5q0 116 62.5 181t182.5 65v1zM286 31q48 -1 67.5 33t24.5 74q2 15 2.5 29.5t0.5 27.5q0 19 -0.5 44.5t-4.5 52.5q-7 49 -28.5 89.5t-71.5 40.5q-53 0 -73 -37t-25 -81
q-1 -15 -1.5 -29t-0.5 -27q0 -18 1 -41t5 -48q7 -48 29.5 -88.5t74.5 -40.5v1z" />
    <glyph glyph-name="p" unicode="p" horiz-adv-x="611" 
d="M100 -155v474q0 42 -4 55t-22 14l-45 4v36q3 -1 6 -0.5t7 1.5q25 3 50 7t50 12l70 23l10 -6v-82l61 49q19 14 42 26t62 12q80 0 130 -53.5t50 -132.5q0 -31 -6.5 -60.5t-16.5 -54.5q-9 -23 -22 -42.5t-27 -34.5q-6 -6 -12 -11.5t-12 -9.5q-9 -7 -18.5 -14t-18.5 -15
q-10 -7 -20 -14.5t-21 -14.5q-25 -15 -44.5 -22.5t-37.5 -7.5q-21 0 -41.5 4.5t-39.5 10.5q-2 0 -4 0.5t-4 1.5v-155q0 -18 1 -29t3 -18q2 -8 9 -12t23 -5l45 -2v-37q-13 0 -25.5 0.5t-24.5 0.5q-9 0 -17.5 0.5t-17.5 0.5q-14 1 -29 1h-31q-22 0 -43.5 -0.5t-42.5 -1.5
q-11 0 -21.5 -0.5t-21.5 -0.5v37l35 2q16 1 23 5t9 12q2 7 3 18t1 29v0zM222 331v-225q17 -27 44 -41.5t58 -14.5q56 0 81.5 40t32.5 88l2 24t1 23q0 60 -28.5 107.5t-96.5 47.5q-4 0 -8.5 -0.5t-8.5 -0.5q-23 -4 -44.5 -16.5t-32.5 -32.5v1z" />
    <glyph glyph-name="q" unicode="q" horiz-adv-x="611" 
d="M396 -155v230l-96 -77q-7 -6 -16.5 -9t-18.5 -4q-7 -1 -13 -1.5t-12 -0.5q-95 0 -141.5 66.5t-46.5 154.5q0 56 14.5 100.5t57.5 76.5q17 13 38 25t42 23q7 4 14 7.5t14 6.5q6 3 11.5 5.5t10.5 5.5q17 7 34 11.5t36 4.5q23 0 52 -8.5t63 -25.5l22 -10l52 42l21 -14
q-1 -6 -2 -11l-2 -10q-4 -24 -8 -51.5t-4 -58.5v-478q0 -18 1 -29t3 -18q2 -8 9 -12t23 -5l35 -2v-37h-7.5h-6.5q-7 1 -14.5 1h-14.5q-22 1 -44.5 1.5t-47.5 0.5q-22 0 -43.5 -0.5t-42.5 -1.5q-11 0 -21.5 -0.5t-21.5 -0.5v37l35 2q16 1 23 5t9 12q2 7 3 18t1 29v0zM396 160
v184q-19 26 -48.5 44t-62.5 18q-67 0 -86.5 -47.5t-20.5 -104.5v-3.5v-2.5q0 -12 1 -25.5t4 -27.5q8 -44 34 -81t76 -37q5 0 10 0.5t10 1.5q31 5 57 25.5t26 54.5v1z" />
    <glyph glyph-name="r" unicode="r" horiz-adv-x="389" 
d="M101 100v219q0 42 -4 55t-22 14l-45 4v36q3 -1 6 -0.5t7 1.5q25 3 50 7t50 12l70 23l10 -6v-95l44 48q12 12 22.5 22t20.5 17q9 6 17.5 9.5t18.5 3.5q14 0 24.5 -1t18.5 -5l-5 -128l-24 -10q-9 17 -24 26t-35 9q-24 0 -45 -15t-29 -33q-2 -4 -3 -8t-1 -8v-197
q0 -19 1 -29.5t3 -18.5q2 -7 15 -11.5t29 -5.5l39 -1v-37q-15 0 -28.5 0.5t-25.5 0.5q-13 1 -25.5 1h-25.5q-11 1 -22.5 1h-23.5q-22 0 -43.5 -0.5t-42.5 -1.5q-11 0 -21.5 -0.5t-21.5 -0.5v37l35 2q16 1 23 5t9 11q2 8 3 18.5t1 28.5v1z" />
    <glyph glyph-name="s" unicode="s" horiz-adv-x="444" 
d="M362 326h-36l-10 58q-2 11 -19 20.5t-37 14.5q-7 1 -13.5 2t-12.5 1q-43 0 -68 -16.5t-25 -48.5q0 -24 13.5 -37t41.5 -19l82 -17q61 -14 94 -42t33 -90q0 -84 -62 -125t-137 -44h-5.5h-5.5q-39 0 -78 7t-78 20l7 142h39l5 -69q22 -29 52.5 -41t65.5 -12q34 0 60 19.5
t26 55.5q0 33 -17.5 45.5t-45.5 19.5l-86 22q-52 12 -79 43.5t-27 78.5q0 86 59 121t147 35q34 0 66 -4.5t59 -18.5l-8 -121v0z" />
    <glyph glyph-name="t" unicode="t" horiz-adv-x="333" 
d="M86 110v259l-64 -4v22l66 43v60q0 11 -0.5 22.5t-0.5 22.5q-1 11 -1.5 22.5t-1.5 23.5q6 2 12 4.5t12 4.5q8 3 15 6t14 5q20 8 38 16t31 14l14 -9q-4 -22 -7 -47t-4 -50q-1 -10 -1 -20v-20v-57l114 6l-8 -65h-106v-238q0 -39 14 -52.5t48 -13.5q12 0 20.5 2.5t16.5 5.5
q2 1 4.5 2.5t4.5 2.5l8 -18l-49 -59q-5 -7 -21 -12.5t-40 -5.5q-68 0 -98 29.5t-30 96.5v1z" />
    <glyph glyph-name="u" unicode="u" horiz-adv-x="611" 
d="M96 140v179q0 42 -4 55t-22 14l-45 4v36q3 -1 6 -0.5t7 1.5q25 3 50 7t50 12l70 23l10 -6v-261v-2.5v-1.5q0 -48 12 -88t69 -40q26 0 48.5 14.5t35.5 36.5q4 6 5.5 12.5t2.5 13.5q1 3 1 6.5v6.5v157q0 42 -4 55t-22 14l-45 4v36q3 -1 6 -0.5t7 1.5q25 3 50 7t50 12l70 23
l10 -6v-365q0 -19 1 -29.5t3 -18.5q2 -7 9 -11t23 -6l33 -1v-37h-4h-4q-8 0 -16.5 0.5t-16.5 0.5q-20 1 -38 1.5t-32 0.5q-8 0 -20.5 -0.5t-28.5 -1.5q-8 0 -17 -0.5t-19 -0.5l5 83l-76 -74q-9 -9 -23.5 -15t-30.5 -7q-2 -1 -4.5 -1h-5.5q-82 0 -119 42.5t-37 113.5v1z" />
    <glyph glyph-name="v" unicode="v" horiz-adv-x="556" 
d="M227 -3l-143 360q-10 22 -20.5 41t-27.5 20l-25 3v38q11 -1 21.5 -1.5t21.5 -0.5q6 0 11.5 -0.5t10.5 -0.5q16 0 32.5 -0.5t32.5 -0.5q22 0 43 0.5t43 1.5q11 0 21.5 0.5t21.5 0.5v-37l-41 -2q-10 -2 -16.5 -5.5t-6.5 -13.5q0 -9 4 -22t10 -28l88 -220q9 19 18 39t17 40
l61 152q6 14 7.5 24t1.5 17q0 6 -5 9.5t-10 5.5q-2 0 -4 0.5t-4 0.5l-38 3v38q8 -1 16 -1.5t16 -0.5q4 0 8 -0.5t9 -0.5q12 0 24 -0.5t24 -0.5q16 0 32 0.5t32 1.5q8 0 16 0.5t16 0.5v-37l-30 -5q-14 -3 -22.5 -12.5t-13.5 -22.5l-128 -287q-10 -24 -19.5 -48.5t-18.5 -48.5
h-86v0z" />
    <glyph glyph-name="w" unicode="w" horiz-adv-x="833" 
d="M194 -3l-107 384q-6 20 -16 28t-25 9l-33 3v38q11 -1 22.5 -1.5t22.5 -0.5q6 0 11.5 -0.5t11.5 -0.5q17 0 34 -0.5t34 -0.5q23 0 45.5 0.5t44.5 1.5q11 0 22.5 0.5t22.5 0.5v-37l-47 -2q-1 -1 -1.5 -1h-0.5q-7 -1 -12 -6.5t-5 -11.5q0 -5 0.5 -11t1.5 -12l58 -223h2
q7 14 14 29.5t14 30.5t14 30.5t14 30.5l87 196h50l138 -317q3 8 6.5 17t6.5 18q7 18 13.5 37.5t12.5 38.5l36 114q2 4 2.5 8.5t0.5 8.5q0 11 -8 16t-18 6h-1.5h-1.5l-42 3v38q9 -1 17 -1.5t17 -0.5q4 0 8 -0.5t9 -0.5q12 0 24.5 -0.5t25.5 -0.5t25.5 0.5t25.5 0.5q4 0 8 0.5
t8 0.5q9 0 17.5 0.5t16.5 0.5v-37l-34 -2q-9 -2 -16.5 -10t-14.5 -24q-1 -3 -2.5 -6.5t-2.5 -7.5l-92 -259q-5 -15 -9.5 -29.5t-8.5 -28.5q-1 -3 -1.5 -6t-1.5 -6q-4 -12 -7 -23.5t-7 -21.5h-81l-132 307l-86 -178q-10 -22 -18.5 -43.5t-16.5 -43.5q-4 -11 -8 -21.5
t-8 -20.5h-79v0z" />
    <glyph glyph-name="x" unicode="x" horiz-adv-x="500" 
d="M200 210l-80 136q-12 19 -22 30.5t-20 17.5q-9 6 -17.5 7.5t-18.5 1.5h-3h-4q-1 -1 -3 -1h-4l-8 37q11 1 31 5t42 9q3 1 5.5 1.5t4.5 0.5q19 4 36 8t27 7q2 -2 4.5 -4t4.5 -4q11 -10 21.5 -23.5t20.5 -27.5q3 -5 5.5 -9.5t5.5 -8.5l52 -84l108 150h95v-37
q-22 -1 -35 -6.5t-24 -16.5q-5 -5 -9.5 -10t-9.5 -11l-97 -113l89 -152q4 -8 8.5 -15t8.5 -13q16 -23 32 -37t37 -15v-36q-6 0 -12.5 0.5t-13.5 0.5q-3 0 -6 0.5t-6 0.5q-10 0 -19.5 0.5t-19.5 0.5q-13 0 -26 -0.5t-26 -1.5q-6 0 -12.5 -0.5t-13.5 -0.5l-100 169l-64 -88
q-9 -13 -17.5 -26.5t-17.5 -26.5q-4 -6 -8.5 -12.5t-8.5 -12.5h-91v34q25 1 40.5 10t28.5 25l110 141v0z" />
    <glyph glyph-name="y" unicode="y" horiz-adv-x="556" 
d="M231 343l84 -218l101 252q1 1 1.5 2.5t0.5 2.5q1 5 1.5 9.5t0.5 7.5q0 8 -7.5 13t-16.5 6h-1.5h-1.5l-33 3v38q8 -1 15.5 -1.5t15.5 -0.5q15 -1 31 -1.5t31 -0.5q16 0 31.5 0.5t30.5 1.5q8 0 15.5 0.5t15.5 0.5v-37l-26 -5q-3 -2 -5.5 -3t-5.5 -3q-8 -5 -15.5 -15.5
t-14.5 -26.5l-199 -462q-5 -12 -15 -34t-26 -47q-22 -34 -55 -62.5t-80 -28.5h-7.5t-7.5 1q-15 1 -30 5.5t-28 10.5l18 95l11 4q14 -17 32 -27t40 -10q29 0 52.5 28t37.5 63l23 56l-158 404q-3 8 -6.5 15.5t-7.5 13.5q-7 12 -13.5 18.5t-14.5 6.5l-35 3v38q11 -1 22 -1.5
t22 -0.5q6 0 11.5 -0.5t11.5 -0.5q16 0 33 -0.5t33 -0.5q22 0 44 0.5t44 1.5q11 0 22 0.5t22 0.5v-37l-35 -2q-10 -2 -18 -7.5t-8 -16.5q0 -3 0.5 -5.5t0.5 -5.5q2 -8 6 -18t10 -24v1z" />
    <glyph glyph-name="z" unicode="z" horiz-adv-x="500" 
d="M454 424l-268 -369h163q37 -1 50 12.5t20 55.5l5 32h40q-2 -17 -4.5 -37t-3.5 -42q-2 -20 -3 -40t-1 -35l-5 -4q-28 0 -54.5 0.5t-51.5 0.5q-49 1 -93.5 1.5t-85.5 0.5q-26 0 -51.5 -0.5t-49.5 -1.5q-12 0 -23 -0.5t-22 -0.5v33q7 7 13.5 15.5t12.5 17.5q20 25 39.5 50.5
t38.5 51.5l170 239h-118q-43 -1 -57 -13t-19 -47l-3 -24h-38l3 134l7 5q17 -1 33.5 -1.5t33.5 -1.5q33 0 66 -1t66 -1q17 -1 33.5 -1h32.5q15 0 30.5 0.5t31.5 1.5q8 0 15.5 0.5t15.5 0.5q8 1 15.5 1.5t15.5 0.5v-34v0z" />
    <glyph glyph-name="braceleft" unicode="{" horiz-adv-x="310" 
d="M96 414v178q0 94 55.5 113t136.5 19v-1q-52 -14 -73.5 -38t-21.5 -80v-176q0 -53 -18 -83.5t-80 -43.5v-1q65 -14 81.5 -47t16.5 -86v-166q0 -56 21.5 -80t73.5 -37v-2q-81 0 -136.5 19t-55.5 113v175q0 55 -19 76t-72 34v3q53 13 72 33.5t19 76.5v1z" />
    <glyph glyph-name="bar" unicode="|" horiz-adv-x="606" 
d="M260 0v720h86v-720h-86v0z" />
    <glyph glyph-name="braceright" unicode="}" horiz-adv-x="310" 
d="M214 592v-178q0 -57 19 -77.5t72 -34.5v-1q-53 -14 -72 -35t-19 -77v-173q0 -95 -55.5 -114t-136.5 -19v2q53 13 74 37t21 79v168q0 52 17 85t81 46v3q-62 12 -80 42.5t-18 82.5v178q0 55 -21 79t-74 37v3q81 -1 136.5 -20t55.5 -114v1z" />
    <glyph glyph-name="asciitilde" unicode="~" horiz-adv-x="606" 
d="M507 342l48 -55q-1 -3 -2 -5t-3 -4q-23 -39 -55.5 -72t-83.5 -33q-11 0 -22 2t-22 6q-12 3 -23.5 7.5t-21.5 9.5q-13 5 -24 10t-20 9l-10 4l-10 4q-15 6 -31 11.5t-32 5.5q-29 0 -48 -19.5t-34 -43.5q-3 -6 -7 -12.5t-7 -12.5l-48 56q2 3 4 6.5t4 7.5q23 39 55.5 72
t81.5 33q19 0 40 -5.5t42 -14.5q9 -3 17.5 -6.5t16.5 -7.5q30 -13 56 -24t45 -11q27 0 47 18.5t35 41.5q3 5 6 10.5t6 10.5v1z" />
    <glyph glyph-name="glyph98" unicode="&#xa1;" horiz-adv-x="278" 
d="M115 -227h-51q0 27 2 51t5 45l50 372l38 21l5 -8l47 -358q1 -6 1.5 -11.5t0.5 -10.5q0 -9 0.5 -18t0.5 -18q1 -5 1 -10.5v-10.5l-100 -44v0zM137 471q31 -1 54.5 -25t23.5 -56q0 -28 -23 -52t-55 -24q-31 0 -54.5 22.5t-23.5 53.5q0 32 23.5 56t54.5 24v1z" />
    <glyph glyph-name="cent" unicode="&#xa2;" horiz-adv-x="500" 
d="M403 554l-25 -81q20 -5 36 -10t27 -11l5 -8q-4 -17 -7.5 -41.5t-6.5 -50.5q-1 -15 -2 -29.5t-2 -27.5l-38 1l-6 60q-1 8 -7.5 15.5t-13.5 12.5q-3 1 -5.5 2t-4.5 2l-91 -301q17 -17 39 -24.5t46 -8.5h4.5h4.5q20 0 41 3.5t44 16.5l9 -10l-21 -47l-4 -4q-29 -14 -61 -22
t-65 -8q-16 0 -33 2t-36 4l-32 -95h-42l36 106q-65 28 -92 85t-27 124q0 26 2.5 48t9.5 43q3 11 7.5 22t10.5 22q6 12 17 22t23 19l12 8t11 7l52 34q9 5 18.5 10t18.5 9q22 10 43 16t38 6l26 79h41v0zM230 124l83 276h-8.5h-9.5q-61 0 -80 -42.5t-19 -98.5q0 -33 7.5 -67
t26.5 -69v1z" />
    <glyph glyph-name="sterling" unicode="&#xa3;" horiz-adv-x="500" 
d="M16 363h90v43q0 62 32.5 113t99.5 96q9 6 18.5 11.5t19.5 10.5q34 18 66.5 28t53.5 10q6 0 12.5 -0.5t13.5 -1.5q16 -3 31.5 -9t26.5 -16l-10 -135h-31l-3 35q-2 26 -23 43.5t-58 17.5q-67 0 -86.5 -43.5t-23.5 -95.5q0 -2 -0.5 -4t-0.5 -4l-8 -99h168v-43h-173
q-13 -73 -41.5 -128.5t-69.5 -96.5l2 -1q24 6 43 10.5t37 5.5q4 1 8.5 1h8.5q18 0 42 -3t49 -7q31 -4 56 -7t42 -3t31 7.5t17 22.5l11 57h34l-10 -179q-11 -4 -23.5 -7.5t-25.5 -4.5q-9 -2 -18 -2.5t-17 -0.5h-2h-1h-2h-2q-45 1 -83.5 8.5t-70.5 16.5q-37 11 -71 16.5
t-63 5.5q-10 0 -20 -5t-17 -10q-3 -2 -5 -3.5t-4 -3.5q-3 -2 -6 -4.5t-6 -4.5q-8 -6 -17 -11t-19 -8l-20 59l64 52q1 0 1.5 0.5l1.5 1.5q11 10 21 27.5t12 39.5q2 20 3.5 39.5t2.5 39.5t1.5 39.5t0.5 39.5l-90 1v43v0z" />
    <glyph glyph-name="Idieresis" unicode="&#xa4;" horiz-adv-x="500" 
d="M32 141l49 49q-21 23 -31.5 54.5t-10.5 66.5t10 68t32 55l-49 50l47 47l48 -48q20 16 50 27t62 13h6.5h6.5h3.5h3.5q32 -1 62 -12t50 -28l48 50l49 -49l-46 -48q17 -20 27 -49.5t12 -60.5v-7v-6q0 -35 -10 -68t-30 -57l46 -47l-45 -45l-47 49q-21 -21 -52 -32t-63 -12h-4
h-4q-37 0 -70.5 10.5t-56.5 31.5l-48 -47l-45 45v0zM252 178q55 -1 93.5 39.5t38.5 95.5q0 53 -38.5 93t-93.5 40t-95.5 -39.5t-40.5 -95.5q0 -55 40.5 -94.5t95.5 -39.5v1z" />
    <glyph glyph-name="ae" unicode="&#xa5;" horiz-adv-x="500" 
d="M215 135v71h-149v40h149v40q0 4 -1.5 10t-4.5 12q-2 5 -4.5 9.5t-4.5 8.5q-3 4 -5 8t-4 7l-125 1v40h108l-63 140q-3 5 -6 11.5t-7 12.5q-3 6 -6.5 12t-7.5 12q-2 5 -5 9.5t-6 8.5q-2 3 -4.5 6t-4.5 6q-10 12 -21 16.5t-26 4.5v38l115 36q28 -23 46 -58t33 -72
q1 -2 1.5 -3.5t1.5 -3.5l80 -202l133 322h56v-19l-135 -277h118v-40h-134q-4 -10 -8 -21t-6 -23q0 -4 -0.5 -7.5t-0.5 -7.5v-37h149v-40h-149v-71q0 -32 1 -52.5t4 -29.5q2 -6 8.5 -9t21.5 -5l26 -2v-40q-7 0 -15 0.5t-17 0.5q-17 1 -37 1.5t-42 0.5q-21 0 -41.5 -0.5
t-38.5 -1.5q-9 0 -17 -0.5t-16 -0.5v40l26 3q15 1 22 4t8 9q3 9 4 29.5t1 51.5v1z" />
    <glyph glyph-name="brokenbar" unicode="&#xa6;" 
 />
    <glyph glyph-name="section" unicode="&#xa7;" horiz-adv-x="500" 
d="M407 515h-38v1.5v2.5v2.5v2.5q0 22 -2 41.5t-5 28.5q-7 9 -22 15.5t-32 10.5q-13 2 -25.5 3.5t-20.5 1.5t-17 -1t-19 -2q-35 -7 -65 -29t-30 -62q0 -36 26.5 -56t57.5 -31q11 -4 21.5 -7t20.5 -6l53 -15q13 -5 31 -9.5t36 -12.5q35 -14 64.5 -42.5t29.5 -87.5
q0 -37 -8.5 -62t-26.5 -48q-7 -10 -16 -19.5t-20 -20.5q31 -21 43 -47.5t12 -63.5q0 -46 -25.5 -89t-60.5 -72t-74.5 -44t-86.5 -15q-13 0 -26.5 1t-27.5 3q-27 4 -53.5 13.5t-51.5 27.5q2 13 3.5 30.5t3.5 37.5t3.5 42t3.5 45h39v-4v-4q-1 -2 -1 -4.5v-4.5v-10t1 -10
q1 -13 3 -25.5t5 -21.5q16 -20 40.5 -33t50.5 -18q11 -2 21 -3t20 -1q47 0 84 27t46 59q2 4 2.5 8.5t0.5 9.5q0 41 -29 62t-64 34q-11 4 -21.5 7.5t-20.5 6.5l-61 21q-56 18 -102.5 49t-46.5 100q0 32 7.5 53.5t23.5 41.5q6 7 13 14.5t15 15.5l19 19q-23 17 -35 44t-12 56
q0 11 1.5 23t5.5 23q9 33 27.5 64t40.5 53q18 18 44 31t54 20q15 4 29.5 6t27.5 2q35 0 68.5 -8.5t64.5 -24.5q-5 -20 -8.5 -50t-6.5 -63q0 -8 -1 -17t-1 -17v1zM282 307l-143 48q-1 -2 -1.5 -2.5l-1.5 -1.5q-9 -11 -17 -24.5t-12 -28.5q-2 -4 -2.5 -8.5t-0.5 -9.5
q0 -21 15.5 -37.5t34.5 -27.5q4 -3 8.5 -5t8.5 -4q5 -2 10.5 -4.5t10.5 -4.5q3 -1 5.5 -2.5t5.5 -2.5q8 -3 16 -6.5t16 -6.5l133 -48q5 5 8.5 10.5t7.5 11.5q6 11 9.5 22.5t3.5 20.5q0 46 -30.5 68.5t-67.5 35.5q-4 2 -8.5 3.5t-8.5 2.5v1z" />
    <glyph glyph-name="dieresis" unicode="&#xa8;" horiz-adv-x="333" 
d="M59 671q28 -1 47.5 -20.5t19.5 -47.5t-19.5 -47.5t-47.5 -19.5t-47 19.5t-19 47.5t19 47.5t47 19.5v1zM274 671q28 -1 47.5 -20.5t19.5 -47.5t-19.5 -47.5t-47.5 -19.5t-47.5 19.5t-19.5 47.5t19.5 47.5t47.5 19.5v1z" />
    <glyph glyph-name="copyright" unicode="&#xa9;" horiz-adv-x="747" 
d="M372 695q144 -1 246 -105t102 -253q0 -147 -102 -250.5t-246 -103.5q-143 0 -244.5 103.5t-101.5 250.5q0 148 101.5 252.5t244.5 104.5v1zM372 639q-121 -1 -205.5 -88.5t-84.5 -212.5q0 -124 85 -212t205 -88q121 0 206.5 88t85.5 212q0 125 -85 212.5t-207 87.5v1z
M519 507v-104h-32q-6 39 -29 67.5t-67 28.5q-58 0 -87 -44t-31 -97v-4v-4q0 -10 0.5 -19.5t2.5 -19.5q7 -51 37 -93.5t88 -42.5q5 0 10 0.5t10 1.5q23 4 43.5 16t32.5 32l8 15l26 -11q-16 -41 -53 -63t-78 -28q-7 -1 -14 -1.5t-14 -0.5q-84 0 -134 56t-50 140q0 89 54 145.5
t141 56.5q12 0 21 -1t17 -2q7 -1 15 -3t17 -4q6 -1 11.5 -2.5t10.5 -2.5q12 -3 23 -6t21 -7v1z" />
    <glyph glyph-name="ellipsis" unicode="&#xaa;" horiz-adv-x="438" 
d="M188 532l57 10q0 31 -15.5 50.5t-52.5 19.5q-13 0 -23.5 -2t-12.5 -6l-14 -29l-22 4v39l77 37q5 1 11.5 2.5t12.5 1.5h3.5h3.5q46 0 78.5 -19.5t32.5 -68.5v-147q0 -12 4 -18t14 -7l19 -1v-22q-7 -1 -14.5 -1t-14.5 1h-4.5h-4.5h-9.5h-9.5h-13.5h-14.5q-7 -1 -14.5 -1
h-16.5l-3 5l3 38l-60 -44q-5 -4 -11 -5.5t-13 -2.5h-6h-6q-36 0 -54 21t-18 52v5.5v4.5q2 16 8.5 30.5t21.5 23.5t32 15t35 10q3 1 7 1.5t7 1.5v1zM245 446v71l-29 -7q-2 -1 -3.5 -1.5t-2.5 -1.5q-24 -6 -39 -15.5t-15 -37.5q0 -19 10.5 -27.5t24.5 -8.5q4 0 8 0.5t8 2.5
q8 2 16 6.5t14 9.5q2 2 4.5 4t3.5 4v1z" />
    <glyph glyph-name="ydieresis" unicode="&#xab;" horiz-adv-x="500" 
d="M234 438l27 -22l-110 -173l110 -179l-27 -20q-19 18 -41 40l-45 45q-8 7 -15 14t-15 14q-21 20 -42 39t-40 34v26q22 18 49.5 42.5t55.5 50.5q6 5 12 10.5t12 11.5q19 17 36.5 33.5t32.5 32.5v1zM436 438l27 -22l-110 -173l110 -179l-27 -20q-19 18 -41 40l-45 45
q-8 7 -15 14t-15 14q-21 20 -42 39t-40 34v26q22 18 49.5 42.5t55.5 50.5q6 5 12 10.5t12 11.5q19 17 36.5 33.5t32.5 32.5v1z" />
    <glyph glyph-name="emdash" unicode="&#xac;" 
 />
    <glyph glyph-name="uni00AD" unicode="&#xad;" horiz-adv-x="500" 
 />
    <glyph glyph-name="registered" unicode="&#xae;" horiz-adv-x="747" 
d="M372 695q144 -1 246 -105t102 -253q0 -147 -102 -250.5t-246 -103.5q-143 0 -244.5 103.5t-101.5 250.5q0 148 101.5 252.5t244.5 104.5v1zM372 639q-121 -1 -205.5 -88.5t-84.5 -212.5q0 -124 85 -212t205 -88q121 0 206.5 88t85.5 212q0 125 -85 212.5t-207 87.5v1z
M324 331v-122q0 -17 4.5 -23.5t21.5 -7.5h17v-20h-156v20h14q17 -1 23.5 3t6.5 23v286q0 18 -4.5 23t-23.5 5l-15 1v21h152q2 -1 4.5 -1h4.5h18.5t18.5 -1q17 -1 33 -4.5t29 -11.5q14 -9 24.5 -24.5t14.5 -32.5q1 -5 1.5 -9.5t0.5 -9.5q0 -44 -29 -70t-68 -32v-1
q24 -5 39.5 -24t26.5 -41q3 -6 5.5 -12t5.5 -12t6.5 -14t7.5 -16l4 -8l4 -8q3 -4 5.5 -8.5t4.5 -7.5l1.5 -1.5t0.5 -1.5q6 -6 12 -9t18 -3v-19h-68q-10 -1 -18 4t-13 11q-7 11 -16.5 31.5t-19.5 42.5q-10 23 -19 42t-16 27q-8 10 -18.5 12t-20.5 2h-2h-2h-2.5h-2.5l-15 1v0z
M324 479v-123l19 -1q3 -1 6 -1h5q39 0 64 18t25 65q0 39 -20 59.5t-56 20.5h-1.5h-0.5h-1.5h-1.5h-21q-11 -2 -14 -9.5t-3 -16.5v-1.5v-1.5v-2.5v-2.5v-2.5v-2.5v1z" />
    <glyph glyph-name="glyph263" unicode="&#xaf;" 
 />
    <glyph glyph-name="glyph264" unicode="&#xb0;" 
 />
    <glyph glyph-name="mu" unicode="&#xb1;" horiz-adv-x="606" 
d="M51 0v86h504v-86h-504v0zM260 358v147h86v-147h209v-86h-209v-147h-86v147h-209v86h209v0z" />
    <glyph glyph-name="uni00B2" unicode="&#xb2;" 
 />
    <glyph glyph-name="uni00B3" unicode="&#xb3;" 
 />
    <glyph glyph-name="acute" unicode="&#xb4;" horiz-adv-x="333" 
d="M265 587l-131 -81h-56l129 148q3 3 6.5 6t6.5 7q11 10 23.5 16.5t29.5 6.5q21 0 32 -13t11 -31q0 -22 -13 -33.5t-29 -20.5q0 -1 -0.5 -1t-1.5 -1q-2 -1 -3.5 -2t-3.5 -2v1z" />
    <glyph glyph-name="oslash" unicode="&#xb5;" horiz-adv-x="611" 
d="M514 465v-365q0 -19 1 -29.5t3 -18.5q2 -7 9 -11t23 -6l33 -1v-37h-4h-4q-8 0 -16.5 0.5t-16.5 0.5q-20 1 -38 1.5t-32 0.5q-8 0 -20.5 -0.5t-28.5 -1.5q-8 0 -17 -0.5t-19 -0.5l5 83l-85 -85q-5 -5 -14 -7.5t-18 -3.5q-7 -1 -13 -1h-11q-23 0 -43.5 5.5t-37.5 16.5
q2 -10 3.5 -21t2.5 -22q5 -32 7.5 -62t2.5 -50q0 -26 -21.5 -46t-47.5 -26q-6 -2 -11 -2.5t-10 -0.5v544q0 42 -4 55t-22 14l-45 4v36q3 -1 6 -0.5t7 1.5q25 3 50 7t50 12l70 23l10 -6v-261v-2.5v-1.5q0 -48 12 -88t69 -40q26 0 48.5 14.5t35.5 36.5q4 6 5.5 12.5t2.5 13.5
q1 3 1 6.5v6.5v157q0 42 -4 55t-22 14l-45 4v36q3 -1 6 -0.5t7 1.5q25 3 50 7t50 12l70 23l10 -6v0z" />
    <glyph glyph-name="paragraph" unicode="&#xb6;" horiz-adv-x="641" 
d="M280 -54v378q-21 -1 -45.5 3t-50.5 13q-62 21 -113.5 68t-51.5 122q0 60 54.5 106.5t150.5 45.5h8.5h8.5q11 0 22.5 -0.5t22.5 -1.5t22.5 -1.5t22.5 -0.5h22h22q11 -1 22.5 -1h22.5q23 0 45 0.5t45 0.5q7 0 14.5 0.5t14.5 0.5q15 0 30 0.5t30 0.5v-40h-47
q-22 -1 -30 -19.5t-8 -58.5v-616q0 -18 1 -29t3 -18q2 -8 9 -12t23 -5l49 -2v-41q-17 0 -33.5 0.5t-33.5 0.5q-9 0 -17.5 0.5t-16.5 0.5q-25 0 -50.5 0.5t-50.5 0.5t-50.5 -0.5t-50.5 -0.5q-8 0 -16.5 -0.5t-17.5 -0.5q-17 0 -33.5 -0.5t-33.5 -0.5v41l49 2q16 1 23 5t9 12
q2 7 3 18t1 29v0zM426 634h-58v-745h58v745v0zM280 371v263h-6.5h-7.5q-7 0 -15 -1t-15 -3q-33 -9 -59.5 -37.5t-26.5 -82.5q0 -55 39 -93t91 -47v1z" />
    <glyph glyph-name="glyph265" unicode="&#xb7;" 
 />
    <glyph glyph-name="glyph121" unicode="&#xb8;" horiz-adv-x="333" 
d="M122 -103l43 96h41l-28 -64q13 3 23.5 4.5t19.5 1.5q44 0 61.5 -22.5t17.5 -52.5q0 -38 -28 -56.5t-62 -24.5q-13 -2 -25.5 -3t-23.5 -1q-9 0 -19.5 1.5t-22.5 3.5q-13 3 -25 6t-21 7l16 37q6 -1 11.5 -2.5t10.5 -2.5q11 -2 22.5 -3t21.5 -1q22 0 36.5 8t14.5 29
q0 18 -11 26.5t-31 8.5q-7 0 -15 -1.5t-17 -2.5l-10 8v0z" />
    <glyph glyph-name="uni00B9" unicode="&#xb9;" 
 />
    <glyph glyph-name="Agrave" unicode="&#xba;" horiz-adv-x="488" 
d="M248 660q74 -1 112.5 -37.5t38.5 -103.5q0 -73 -42 -113t-123 -40q-75 0 -110 41t-35 104q0 70 40.5 109t118.5 39v1zM249 396q31 -1 44 19t16 44q1 9 1.5 18t0.5 17q0 11 -0.5 26.5t-2.5 31.5q-5 29 -19 53.5t-47 24.5q-35 0 -48 -22t-16 -49q0 -8 -0.5 -16.5
t-0.5 -16.5q0 -11 0.5 -25t3.5 -28q4 -29 19 -53.5t49 -24.5v1z" />
    <glyph glyph-name="Ydieresis" unicode="&#xbb;" horiz-adv-x="500" 
d="M37 416l27 22q15 -17 32.5 -33.5t36.5 -33.5q6 -6 12 -11.5t12 -10.5q28 -26 55.5 -50.5t49.5 -43.5v-24q-19 -16 -40 -35t-42 -39q-8 -7 -15 -14t-15 -14l-45 -45l-41 -41l-27 21l110 179l-110 173v0zM239 416l27 22q15 -17 32.5 -33.5t36.5 -33.5q6 -6 12 -11.5
t12 -10.5q28 -26 55.5 -50.5t49.5 -43.5v-24q-19 -16 -40 -35t-42 -39q-8 -7 -15 -14t-15 -14l-45 -45l-41 -41l-27 21l110 179l-110 173v0z" />
    <glyph glyph-name="onequarter" unicode="&#xbc;" 
 />
    <glyph glyph-name="glyph243" unicode="&#xbd;" horiz-adv-x="750" 
d="M455 -2v37l108 101q1 0 2.5 1.5l2.5 2.5q25 24 45 55t20 67q0 32 -19 49t-47 17q-26 0 -39 -9t-20 -32l-10 -32l-28 4l12 101q23 16 49 26t53 10q62 0 101.5 -28.5t39.5 -78.5q0 -7 -1 -14t-3 -14q-7 -27 -24.5 -52t-38.5 -45l-96 -89v-8l178 9l5 -5q-1 -11 -1.5 -20.5
t0.5 -19.5v-17.5t1 -15.5q-47 1 -82.5 1.5t-62.5 0.5q-28 0 -63.5 -0.5t-81.5 -1.5v0zM224 0h-69l403 660h69l-403 -660v0zM115 338v235v1v2q0 8 -1 14t-6 5h-1.5t-1.5 -1l-87 -38q-4 14 -6.5 24.5t-2.5 18.5v0.5v1.5v1.5v0.5q21 5 51 14t62 19q4 1 7.5 2.5t7.5 2.5
q19 6 36.5 12t33.5 11l8 -4q-1 -9 -1.5 -17.5t-1.5 -17.5q-2 -14 -3 -28t-1 -28v-231q0 -24 11 -34.5t26 -11.5l37 -1v-30q-44 0 -69 0.5t-46 0.5t-48 -0.5t-84 -1.5v31l42 2q16 0 27 10.5t11 33.5v1z" />
    <glyph glyph-name="threequarters" unicode="&#xbe;" 
 />
    <glyph glyph-name="oe" unicode="&#xbf;" horiz-adv-x="444" 
d="M366 -41l35 -9q-13 -41 -21.5 -74t-10.5 -59q-27 -20 -55 -30.5t-56 -14.5q-10 -2 -19.5 -2.5t-18.5 -0.5h-1.5h-1.5q-69 1 -126.5 37.5t-57.5 115.5q0 39 10 63.5t32 46.5q6 7 13.5 13.5t15.5 13.5l77 65q36 29 49.5 51t13.5 41q-1 10 -3 18.5t-7 16.5l-1 3l34 14
q14 -17 20 -37.5t6 -41.5q0 -28 -21 -62t-55 -73q-2 -3 -4.5 -5.5t-4.5 -5.5q-11 -15 -21.5 -32.5t-15.5 -35.5q-2 -6 -3 -12.5t-1 -12.5q0 -38 27.5 -61.5t64.5 -23.5q28 0 49.5 6t26.5 17l31 71v0zM250 471q31 -1 54.5 -25t23.5 -56q0 -28 -23 -52t-55 -24
q-31 0 -54.5 22.5t-23.5 53.5q0 32 23.5 56t54.5 24v1z" />
    <glyph glyph-name="currency" unicode="&#xc0;" horiz-adv-x="778" 
d="M469 206h-251l-42 -112l-3.5 -14t-1.5 -11q1 -16 10 -24t19 -9l50 -2v-37q-12 0 -23 0.5t-21 0.5q-20 1 -37 1.5t-32 0.5q-14 0 -31.5 -0.5t-37.5 -1.5q-10 0 -21 -0.5t-23 -0.5v37l30 3q20 1 33.5 19t22.5 40l181 439l26 69l16 41l15 41h71l259 -605q8 -20 20 -31
t35 -14l24 -2v-37q-17 0 -32 0.5t-29 0.5q-28 1 -51 1.5t-43 0.5q-19 0 -42.5 -0.5t-51.5 -1.5q-14 0 -29 -0.5t-32 -0.5v37l53 3q8 0 14 7.5t6 20.5q0 5 -1.5 12t-4.5 14l-45 115v0zM342 516l-100 -254h204l-104 254v0zM415 730l-131 81q-2 0 -3.5 1t-3.5 2q-1 1 -1.5 1
t-0.5 1q-16 9 -29 20.5t-13 33.5q0 18 11 31t32 13q18 0 30 -6.5t23 -16.5q3 -4 6.5 -7t6.5 -7l129 -147h-56v0z" />
    <glyph glyph-name="breve" unicode="&#xc1;" horiz-adv-x="778" 
d="M469 206h-251l-42 -112l-3.5 -14t-1.5 -11q1 -16 10 -24t19 -9l50 -2v-37q-12 0 -23 0.5t-21 0.5q-20 1 -37 1.5t-32 0.5q-14 0 -31.5 -0.5t-37.5 -1.5q-10 0 -21 -0.5t-23 -0.5v37l30 3q20 1 33.5 19t22.5 40l181 439l26 69l16 41l15 41h71l259 -605q8 -20 20 -31
t35 -14l24 -2v-37q-17 0 -32 0.5t-29 0.5q-28 1 -51 1.5t-43 0.5q-19 0 -42.5 -0.5t-51.5 -1.5q-14 0 -29 -0.5t-32 -0.5v37l53 3q8 0 14 7.5t6 20.5q0 5 -1.5 12t-4.5 14l-45 115v0zM342 516l-100 -254h204l-104 254v0zM488 811l-131 -81h-56l129 148q3 3 6.5 6t6.5 7
q11 10 23.5 16.5t29.5 6.5q21 0 32 -13t11 -31q0 -22 -13 -33.5t-29 -20.5q0 -1 -0.5 -1t-1.5 -1q-2 -1 -3.5 -2t-3.5 -2v1z" />
    <glyph glyph-name="tilde" unicode="&#xc2;" horiz-adv-x="778" 
d="M469 206h-251l-42 -112l-3.5 -14t-1.5 -11q1 -16 10 -24t19 -9l50 -2v-37q-12 0 -23 0.5t-21 0.5q-20 1 -37 1.5t-32 0.5q-14 0 -31.5 -0.5t-37.5 -1.5q-10 0 -21 -0.5t-23 -0.5v37l30 3q20 1 33.5 19t22.5 40l181 439l26 69l16 41l15 41h71l259 -605q8 -20 20 -31
t35 -14l24 -2v-37q-17 0 -32 0.5t-29 0.5q-28 1 -51 1.5t-43 0.5q-19 0 -42.5 -0.5t-51.5 -1.5q-14 0 -29 -0.5t-32 -0.5v37l53 3q8 0 14 7.5t6 20.5q0 5 -1.5 12t-4.5 14l-45 115v0zM342 516l-100 -254h204l-104 254v0zM330 905h93l123 -175h-57l-112 98l-113 -98h-55
l121 175v0z" />
    <glyph glyph-name="guilsinglleft" unicode="&#xc3;" horiz-adv-x="778" 
d="M469 206h-251l-42 -112l-3.5 -14t-1.5 -11q1 -16 10 -24t19 -9l50 -2v-37q-12 0 -23 0.5t-21 0.5q-20 1 -37 1.5t-32 0.5q-14 0 -31.5 -0.5t-37.5 -1.5q-10 0 -21 -0.5t-23 -0.5v37l30 3q20 1 33.5 19t22.5 40l181 439l26 69l16 41l15 41h71l259 -605q8 -20 20 -31
t35 -14l24 -2v-37q-17 0 -32 0.5t-29 0.5q-28 1 -51 1.5t-43 0.5q-19 0 -42.5 -0.5t-51.5 -1.5q-14 0 -29 -0.5t-32 -0.5v37l53 3q8 0 14 7.5t6 20.5q0 5 -1.5 12t-4.5 14l-45 115v0zM342 516l-100 -254h204l-104 254v0zM529 885h43q-11 -48 -38.5 -87.5t-82.5 -39.5
q-12 0 -26 3.5t-28 9.5q-6 3 -13 6l-14 6q-20 10 -39.5 17t-36.5 7t-28 -12t-16 -27q-1 -2 -1.5 -4.5t-1.5 -4.5l-40 1q0 9 4 23.5t11 30.5q13 26 38 48t65 22q21 0 40 -7.5t38 -16.5t37.5 -16.5t36.5 -7.5q21 0 30.5 10.5t16.5 26.5q1 3 2.5 5.5t2.5 5.5v1z" />
    <glyph glyph-name="Adieresis" unicode="&#xc4;" horiz-adv-x="778" 
d="M469 206h-251l-42 -112l-3.5 -14t-1.5 -11q1 -16 10 -24t19 -9l50 -2v-37q-12 0 -23 0.5t-21 0.5q-20 1 -37 1.5t-32 0.5q-14 0 -31.5 -0.5t-37.5 -1.5q-10 0 -21 -0.5t-23 -0.5v37l30 3q20 1 33.5 19t22.5 40l181 439l26 69l16 41l15 41h71l259 -605q8 -20 20 -31
t35 -14l24 -2v-37q-17 0 -32 0.5t-29 0.5q-28 1 -51 1.5t-43 0.5q-19 0 -42.5 -0.5t-51.5 -1.5q-14 0 -29 -0.5t-32 -0.5v37l53 3q8 0 14 7.5t6 20.5q0 5 -1.5 12t-4.5 14l-45 115v0zM342 516l-100 -254h204l-104 254v0zM282 895q28 -1 47.5 -20.5t19.5 -47.5t-19.5 -47.5
t-47.5 -19.5t-47.5 19.5t-19.5 47.5t19.5 47.5t47.5 19.5v1zM497 895q28 -1 47.5 -20.5t19.5 -47.5t-19.5 -47.5t-47.5 -19.5t-47.5 19.5t-19.5 47.5t19.5 47.5t47.5 19.5v1z" />
    <glyph glyph-name="Aring" unicode="&#xc5;" horiz-adv-x="778" 
d="M469 206h-251l-42 -112l-3.5 -14t-1.5 -11q1 -16 10 -24t19 -9l50 -2v-37q-12 0 -23 0.5t-21 0.5q-20 1 -37 1.5t-32 0.5q-14 0 -31.5 -0.5t-37.5 -1.5q-10 0 -21 -0.5t-23 -0.5v37l30 3q20 1 33.5 19t22.5 40l181 439l26 69l16 41l15 41h71l259 -605q8 -20 20 -31
t35 -14l24 -2v-37q-17 0 -32 0.5t-29 0.5q-28 1 -51 1.5t-43 0.5q-19 0 -42.5 -0.5t-51.5 -1.5q-14 0 -29 -0.5t-32 -0.5v37l53 3q8 0 14 7.5t6 20.5q0 5 -1.5 12t-4.5 14l-45 115v0zM342 516l-100 -254h204l-104 254v0zM390 924q41 -1 70.5 -30.5t29.5 -70.5t-29.5 -70.5
t-70.5 -29.5t-70.5 29.5t-29.5 70.5t29.5 70.5t70.5 29.5v1zM390 874q-21 -1 -35.5 -15.5t-14.5 -35.5t14.5 -35.5t35.5 -14.5t35.5 14.5t14.5 35.5t-14.5 35.5t-35.5 14.5v1z" />
    <glyph glyph-name="Oslash" unicode="&#xc6;" horiz-adv-x="1000" 
d="M501 95v119h-260l-62 -107q-7 -14 -13 -27.5t-6 -28.5q0 -1 1 -3t3 -4q4 -3 9 -5.5t11 -2.5l54 -2v-37q-10 0 -20.5 0.5t-20.5 0.5q-20 1 -40.5 1.5t-41.5 0.5q-16 0 -33 -0.5t-34 -1.5q-9 0 -18 -0.5t-18 -0.5v37l38 3q13 0 25 14t22 30q2 3 3.5 6t3.5 6l290 491
q8 13 12.5 22.5t4.5 16.5t-12.5 11.5t-30.5 5.5l-52 4v37q21 -1 42 -1.5t43 -0.5q42 -1 85 -1.5t86 -0.5q47 0 86 0.5t72 1.5q16 0 31.5 0.5t29.5 0.5h15t14 1h13.5h13.5h12t11 -1h19t18 -1q8 0 15.5 -0.5t14.5 -1.5l6 -6l-14 -142h-36l-8 75q-1 8 -25.5 12t-53.5 5
q-9 1 -18.5 1h-17.5q-32 0 -64 -0.5t-64 -2.5v-239q17 -2 34 -2.5t33 -0.5l66 1q26 -1 41 2.5t16 17.5l6 58h40q0 -10 -0.5 -19t-0.5 -18q0 -4 -0.5 -8.5t-0.5 -8.5q0 -14 -0.5 -27t-0.5 -27q0 -18 0.5 -36t1.5 -36q0 -9 0.5 -18t0.5 -18l-40 1l-6 50q-2 20 -16.5 28
t-40.5 8l-66 1q-16 -1 -33 -1.5t-34 -2.5v-266q32 -2 64 -3t64 -1q10 0 21 0.5t22 1.5q25 2 47 5.5t29 7.5q1 0 2 0.5t1 1.5l23 95h39l-11 -158l-5 -8q-25 -2 -58.5 -3t-68.5 -1h-16.5h-16.5h-46t-40 1q-10 0 -20.5 0.5t-20.5 0.5q-20 1 -40.5 1.5t-41.5 0.5t-42.5 -0.5
t-40.5 -1.5q-10 0 -19 -0.5t-18 -0.5v23l32 18q12 6 16 19.5t4 36.5v1zM271 267h230v339q0 4 -2 8t-5 8l-7 1l-216 -356v0z" />
    <glyph glyph-name="Ccedilla" unicode="&#xc7;" horiz-adv-x="722" 
d="M317 -103l43 96h41l-28 -64q13 3 23.5 4.5t19.5 1.5q44 0 61.5 -22.5t17.5 -52.5q0 -38 -28 -56.5t-62 -24.5q-13 -2 -25.5 -3t-23.5 -1q-9 0 -19.5 1.5t-22.5 3.5q-13 3 -25 6t-21 7l16 37q6 -1 11.5 -2.5t10.5 -2.5q11 -2 22.5 -3t21.5 -1q22 0 36.5 8t14.5 29
q0 18 -11 26.5t-31 8.5q-7 0 -15 -1.5t-17 -2.5l-10 8v0zM692 87l-22 -49q-48 -30 -102 -41.5t-110 -13.5h-8.5h-9.5q-171 0 -283.5 93.5t-112.5 272.5q0 173 120 259t280 86q21 0 41 -0.5t39 -2.5q38 -4 78 -14t87 -30l6 -10q-4 -16 -7.5 -38t-7.5 -46q-2 -19 -4 -37.5
t-4 -32.5l-39 1l-5 86q-37 37 -83 52.5t-97 15.5q-124 0 -189 -78.5t-65 -197.5q0 -137 76.5 -226t218.5 -89q19 0 40 2.5t43 7.5q29 7 57.5 17.5t50.5 23.5l12 -11v0z" />
    <glyph glyph-name="ring" unicode="&#xc8;" horiz-adv-x="611" 
d="M265 620v-240q17 -2 34 -2.5t33 -0.5l66 1q26 -1 41 2.5t16 17.5l6 58h40q0 -10 -0.5 -19t-0.5 -18q0 -4 -0.5 -8.5t-0.5 -8.5q0 -14 -0.5 -27t-0.5 -27q0 -18 0.5 -36t1.5 -36q0 -9 0.5 -18t0.5 -18l-40 1l-6 50q-2 20 -16.5 28t-40.5 8l-66 1q-16 -1 -33 -1.5t-34 -2.5
v-266q32 -2 64 -3t64 -1q10 0 21 0.5t22 1.5q25 2 47 5.5t29 7.5q1 0 2 0.5t1 1.5l23 95h39l-11 -158l-5 -8q-25 -2 -58.5 -3t-68.5 -1h-16.5h-16.5h-46t-40 1q-10 0 -20.5 0.5t-20.5 0.5q-20 1 -40.5 1.5t-41.5 0.5t-41.5 -0.5t-40.5 -1.5q-10 0 -19.5 -0.5t-18.5 -0.5v23
l32 18q12 6 16 19.5t4 36.5v449q0 31 -1 51t-6 29q-4 8 -12.5 12t-28.5 5l-37 4v37q17 -1 32 -1.5t29 -0.5q28 -1 52 -1.5t43 -0.5q47 0 86 0.5t72 1.5q16 0 31.5 0.5t29.5 0.5h15t14 1h13.5h13.5h12t11 -1h19t18 -1q8 0 15.5 -0.5t14.5 -1.5l6 -6l-14 -142h-36l-8 75
q-1 8 -25.5 12t-53.5 5q-9 1 -18.5 1h-17.5q-32 0 -64 -0.5t-64 -2.5v1zM339 730l-131 81q-2 0 -3.5 1t-3.5 2q-1 1 -1.5 1t-0.5 1q-16 9 -29 20.5t-13 33.5q0 18 11 31t32 13q18 0 30 -6.5t23 -16.5q3 -4 6.5 -7t6.5 -7l129 -147h-56v0z" />
    <glyph glyph-name="Eacute" unicode="&#xc9;" horiz-adv-x="611" 
d="M265 620v-240q17 -2 34 -2.5t33 -0.5l66 1q26 -1 41 2.5t16 17.5l6 58h40q0 -10 -0.5 -19t-0.5 -18q0 -4 -0.5 -8.5t-0.5 -8.5q0 -14 -0.5 -27t-0.5 -27q0 -18 0.5 -36t1.5 -36q0 -9 0.5 -18t0.5 -18l-40 1l-6 50q-2 20 -16.5 28t-40.5 8l-66 1q-16 -1 -33 -1.5t-34 -2.5
v-266q32 -2 64 -3t64 -1q10 0 21 0.5t22 1.5q25 2 47 5.5t29 7.5q1 0 2 0.5t1 1.5l23 95h39l-11 -158l-5 -8q-25 -2 -58.5 -3t-68.5 -1h-16.5h-16.5h-46t-40 1q-10 0 -20.5 0.5t-20.5 0.5q-20 1 -40.5 1.5t-41.5 0.5t-41.5 -0.5t-40.5 -1.5q-10 0 -19.5 -0.5t-18.5 -0.5v23
l32 18q12 6 16 19.5t4 36.5v449q0 31 -1 51t-6 29q-4 8 -12.5 12t-28.5 5l-37 4v37q17 -1 32 -1.5t29 -0.5q28 -1 52 -1.5t43 -0.5q47 0 86 0.5t72 1.5q16 0 31.5 0.5t29.5 0.5h15t14 1h13.5h13.5h12t11 -1h19t18 -1q8 0 15.5 -0.5t14.5 -1.5l6 -6l-14 -142h-36l-8 75
q-1 8 -25.5 12t-53.5 5q-9 1 -18.5 1h-17.5q-32 0 -64 -0.5t-64 -2.5v1zM404 811l-131 -81h-56l129 148q3 3 6.5 6t6.5 7q11 10 23.5 16.5t29.5 6.5q21 0 32 -13t11 -31q0 -22 -13 -33.5t-29 -20.5q0 -1 -0.5 -1t-1.5 -1q-2 -1 -3.5 -2t-3.5 -2v1z" />
    <glyph glyph-name="macron" unicode="&#xca;" horiz-adv-x="611" 
d="M265 620v-240q17 -2 34 -2.5t33 -0.5l66 1q26 -1 41 2.5t16 17.5l6 58h40q0 -10 -0.5 -19t-0.5 -18q0 -4 -0.5 -8.5t-0.5 -8.5q0 -14 -0.5 -27t-0.5 -27q0 -18 0.5 -36t1.5 -36q0 -9 0.5 -18t0.5 -18l-40 1l-6 50q-2 20 -16.5 28t-40.5 8l-66 1q-16 -1 -33 -1.5t-34 -2.5
v-266q32 -2 64 -3t64 -1q10 0 21 0.5t22 1.5q25 2 47 5.5t29 7.5q1 0 2 0.5t1 1.5l23 95h39l-11 -158l-5 -8q-25 -2 -58.5 -3t-68.5 -1h-16.5h-16.5h-46t-40 1q-10 0 -20.5 0.5t-20.5 0.5q-20 1 -40.5 1.5t-41.5 0.5t-41.5 -0.5t-40.5 -1.5q-10 0 -19.5 -0.5t-18.5 -0.5v23
l32 18q12 6 16 19.5t4 36.5v449q0 31 -1 51t-6 29q-4 8 -12.5 12t-28.5 5l-37 4v37q17 -1 32 -1.5t29 -0.5q28 -1 52 -1.5t43 -0.5q47 0 86 0.5t72 1.5q16 0 31.5 0.5t29.5 0.5h15t14 1h13.5h13.5h12t11 -1h19t18 -1q8 0 15.5 -0.5t14.5 -1.5l6 -6l-14 -142h-36l-8 75
q-1 8 -25.5 12t-53.5 5q-9 1 -18.5 1h-17.5q-32 0 -64 -0.5t-64 -2.5v1zM258 905h93l123 -175h-57l-112 98l-113 -98h-55l121 175v0z" />
    <glyph glyph-name="dotaccent" unicode="&#xcb;" horiz-adv-x="611" 
d="M265 620v-240q17 -2 34 -2.5t33 -0.5l66 1q26 -1 41 2.5t16 17.5l6 58h40q0 -10 -0.5 -19t-0.5 -18q0 -4 -0.5 -8.5t-0.5 -8.5q0 -14 -0.5 -27t-0.5 -27q0 -18 0.5 -36t1.5 -36q0 -9 0.5 -18t0.5 -18l-40 1l-6 50q-2 20 -16.5 28t-40.5 8l-66 1q-16 -1 -33 -1.5t-34 -2.5
v-266q32 -2 64 -3t64 -1q10 0 21 0.5t22 1.5q25 2 47 5.5t29 7.5q1 0 2 0.5t1 1.5l23 95h39l-11 -158l-5 -8q-25 -2 -58.5 -3t-68.5 -1h-16.5h-16.5h-46t-40 1q-10 0 -20.5 0.5t-20.5 0.5q-20 1 -40.5 1.5t-41.5 0.5t-41.5 -0.5t-40.5 -1.5q-10 0 -19.5 -0.5t-18.5 -0.5v23
l32 18q12 6 16 19.5t4 36.5v449q0 31 -1 51t-6 29q-4 8 -12.5 12t-28.5 5l-37 4v37q17 -1 32 -1.5t29 -0.5q28 -1 52 -1.5t43 -0.5q47 0 86 0.5t72 1.5q16 0 31.5 0.5t29.5 0.5h15t14 1h13.5h13.5h12t11 -1h19t18 -1q8 0 15.5 -0.5t14.5 -1.5l6 -6l-14 -142h-36l-8 75
q-1 8 -25.5 12t-53.5 5q-9 1 -18.5 1h-17.5q-32 0 -64 -0.5t-64 -2.5v1zM198 895q28 -1 47.5 -20.5t19.5 -47.5t-19.5 -47.5t-47.5 -19.5t-47.5 19.5t-19.5 47.5t19.5 47.5t47.5 19.5v1zM413 895q28 -1 47.5 -20.5t19.5 -47.5t-19.5 -47.5t-47.5 -19.5t-47.5 19.5
t-19.5 47.5t19.5 47.5t47.5 19.5v1z" />
    <glyph glyph-name="caron" unicode="&#xcc;" horiz-adv-x="389" 
d="M265 543v-408q0 -32 1.5 -52.5t5.5 -29.5q3 -6 12.5 -9t28.5 -5l37 -2v-40q-10 0 -21.5 0.5t-23.5 0.5q-25 1 -52.5 1.5t-57.5 0.5t-58 -0.5t-53 -1.5q-12 0 -23.5 -0.5t-21.5 -0.5v40l37 3q20 1 29 4t12 9q5 9 6 29.5t1 51.5v409q0 31 -1 51t-6 29q-3 6 -12 9.5t-29 4.5
l-37 4v40q10 -1 21.5 -1.5t23.5 -0.5q25 -1 53 -1.5t58 -0.5t57.5 0.5t52.5 1.5q12 0 23.5 0.5t21.5 0.5v-39l-37 -3q-19 -2 -28.5 -5.5t-12.5 -9.5q-4 -9 -5.5 -29t-1.5 -52v1zM228 730l-131 81q-2 0 -3.5 1t-3.5 2q-1 1 -1.5 1t-0.5 1q-16 9 -29 20.5t-13 33.5q0 18 11 31
t32 13q18 0 30 -6.5t23 -16.5q3 -4 6.5 -7t6.5 -7l129 -147h-56v0z" />
    <glyph glyph-name="cedilla" unicode="&#xcd;" horiz-adv-x="389" 
d="M265 543v-408q0 -32 1.5 -52.5t5.5 -29.5q3 -6 12.5 -9t28.5 -5l37 -2v-40q-10 0 -21.5 0.5t-23.5 0.5q-25 1 -52.5 1.5t-57.5 0.5t-58 -0.5t-53 -1.5q-12 0 -23.5 -0.5t-21.5 -0.5v40l37 3q20 1 29 4t12 9q5 9 6 29.5t1 51.5v409q0 31 -1 51t-6 29q-3 6 -12 9.5t-29 4.5
l-37 4v40q10 -1 21.5 -1.5t23.5 -0.5q25 -1 53 -1.5t58 -0.5t57.5 0.5t52.5 1.5q12 0 23.5 0.5t21.5 0.5v-39l-37 -3q-19 -2 -28.5 -5.5t-12.5 -9.5q-4 -9 -5.5 -29t-1.5 -52v1zM293 811l-131 -81h-56l129 148q3 3 6.5 6t6.5 7q11 10 23.5 16.5t29.5 6.5q21 0 32 -13t11 -31
q0 -22 -13 -33.5t-29 -20.5q0 -1 -0.5 -1t-1.5 -1q-2 -1 -3.5 -2t-3.5 -2v1z" />
    <glyph glyph-name="hungarumlaut" unicode="&#xce;" horiz-adv-x="389" 
d="M265 543v-408q0 -32 1.5 -52.5t5.5 -29.5q3 -6 12.5 -9t28.5 -5l37 -2v-40q-10 0 -21.5 0.5t-23.5 0.5q-25 1 -52.5 1.5t-57.5 0.5t-58 -0.5t-53 -1.5q-12 0 -23.5 -0.5t-21.5 -0.5v40l37 3q20 1 29 4t12 9q5 9 6 29.5t1 51.5v409q0 31 -1 51t-6 29q-3 6 -12 9.5t-29 4.5
l-37 4v40q10 -1 21.5 -1.5t23.5 -0.5q25 -1 53 -1.5t58 -0.5t57.5 0.5t52.5 1.5q12 0 23.5 0.5t21.5 0.5v-39l-37 -3q-19 -2 -28.5 -5.5t-12.5 -9.5q-4 -9 -5.5 -29t-1.5 -52v1zM147 905h93l123 -175h-57l-112 98l-113 -98h-55l121 175v0z" />
    <glyph glyph-name="ogonek" unicode="&#xcf;" horiz-adv-x="389" 
d="M265 543v-408q0 -32 1.5 -52.5t5.5 -29.5q3 -6 12.5 -9t28.5 -5l37 -2v-40q-10 0 -21.5 0.5t-23.5 0.5q-25 1 -52.5 1.5t-57.5 0.5t-58 -0.5t-53 -1.5q-12 0 -23.5 -0.5t-21.5 -0.5v40l37 3q20 1 29 4t12 9q5 9 6 29.5t1 51.5v409q0 31 -1 51t-6 29q-3 6 -12 9.5t-29 4.5
l-37 4v40q10 -1 21.5 -1.5t23.5 -0.5q25 -1 53 -1.5t58 -0.5t57.5 0.5t52.5 1.5q12 0 23.5 0.5t21.5 0.5v-39l-37 -3q-19 -2 -28.5 -5.5t-12.5 -9.5q-4 -9 -5.5 -29t-1.5 -52v1zM87 895q28 -1 47.5 -20.5t19.5 -47.5t-19.5 -47.5t-47.5 -19.5t-47.5 19.5t-19.5 47.5
t19.5 47.5t47.5 19.5v1zM302 895q28 -1 47.5 -20.5t19.5 -47.5t-19.5 -47.5t-47.5 -19.5t-47.5 19.5t-19.5 47.5t19.5 47.5t47.5 19.5v1z" />
    <glyph glyph-name="glyph232" unicode="&#xd0;" horiz-adv-x="833" 
d="M120 380v163q0 31 -1 51t-6 29q-4 8 -12.5 12t-28.5 5l-37 4v37q17 -1 32 -1.5t29 -0.5q28 -1 52 -1.5t43 -0.5q24 0 55 0.5t65 1.5h28.5h28.5q21 1 41 1h39q161 0 249.5 -72t88.5 -240q0 -179 -125 -275.5t-283 -95.5h-2h-2h-2h-2q-12 0 -24.5 0.5t-25.5 0.5
q-6 0 -12 0.5t-12 0.5q-19 0 -37.5 0.5t-37.5 0.5h-12.5h-12.5q-19 0 -37.5 -0.5t-37.5 -1.5q-13 0 -26 -0.5t-27 -0.5v23l32 18q12 6 16 19.5t4 36.5v244h-110v42h110v0zM261 627v-247h151v-42h-151v-281q22 -5 43.5 -5.5t42.5 -0.5q149 0 219 74t70 224q0 149 -71.5 215
t-242.5 66q-15 0 -30 -1t-31 -3v1z" />
    <glyph glyph-name="Ntilde" unicode="&#xd1;" horiz-adv-x="833" 
d="M120 135v408q0 31 -1 51t-6 29q-4 8 -12.5 12t-28.5 5l-37 4v37q10 -1 20 -1.5t20 -0.5q20 -1 40 -1.5t40 -0.5q14 0 28 0.5t28 1.5q7 0 14 0.5t14 0.5q6 -8 12.5 -16.5t12.5 -16.5q4 -5 7 -9l6 -8l32 -42t33 -41l312 -363v359q0 31 -1 51t-6 29q-4 8 -12.5 12t-28.5 5
l-37 4v37q10 -1 19.5 -1.5t18.5 -0.5q5 0 10 -0.5t10 -0.5q14 0 28.5 -0.5t28.5 -0.5q19 0 38 0.5t38 1.5q10 0 19.5 0.5t18.5 0.5v-36l-37 -3q-19 -2 -28 -6t-13 -12q-4 -9 -5.5 -29t-1.5 -52v-453v-8.5v-7.5q0 -14 0.5 -27.5t1.5 -26.5q0 -9 0.5 -16t0.5 -15l-7 -4l-82 13
q-8 8 -15.5 16.5t-15.5 17.5q-8 8 -15.5 17t-15.5 18q-15 17 -30 34.5t-30 34.5l-324 391h-2v-391q0 -32 1.5 -52.5t5.5 -29.5q4 -7 13 -11t28 -6l37 -2v-37q-9 0 -18.5 0.5t-19.5 0.5q-19 1 -38 1.5t-38 0.5q-14 0 -28.5 -0.5t-28.5 -0.5q-5 0 -10 -0.5t-10 -0.5
q-9 0 -18.5 -0.5t-19.5 -0.5v37l37 3q20 1 28.5 5t12.5 11q5 9 6 29.5t1 51.5v1zM556 885h43q-11 -48 -38.5 -87.5t-82.5 -39.5q-12 0 -26 3.5t-28 9.5q-6 3 -13 6l-14 6q-20 10 -39.5 17t-36.5 7t-28 -12t-16 -27q-1 -2 -1.5 -4.5t-1.5 -4.5l-40 1q0 9 4 23.5t11 30.5
q13 26 38 48t65 22q21 0 40 -7.5t38 -16.5t37.5 -16.5t36.5 -7.5q21 0 30.5 10.5t16.5 26.5q1 3 2.5 5.5t2.5 5.5v1z" />
    <glyph glyph-name="scaron" unicode="&#xd2;" 
 />
    <glyph glyph-name="Lslash" unicode="&#xd3;" horiz-adv-x="833" 
d="M427 695q168 -1 264 -90.5t96 -260.5q0 -177 -104 -269t-276 -92q-168 0 -264 89t-96 260q0 177 104 269.5t276 92.5v1zM427 639q-139 -1 -184.5 -89t-45.5 -201q0 -124 52 -217.5t158 -93.5q140 0 185 88t45 200q0 124 -52 218t-158 94v1zM515 811l-131 -81h-56l129 148
q3 3 6.5 6t6.5 7q11 10 23.5 16.5t29.5 6.5q21 0 32 -13t11 -31q0 -22 -13 -33.5t-29 -20.5q0 -1 -0.5 -1t-1.5 -1q-2 -1 -3.5 -2t-3.5 -2v1z" />
    <glyph glyph-name="lslash" unicode="&#xd4;" horiz-adv-x="833" 
d="M427 695q168 -1 264 -90.5t96 -260.5q0 -177 -104 -269t-276 -92q-168 0 -264 89t-96 260q0 177 104 269.5t276 92.5v1zM427 639q-139 -1 -184.5 -89t-45.5 -201q0 -124 52 -217.5t158 -93.5q140 0 185 88t45 200q0 124 -52 218t-158 94v1zM369 905h93l123 -175h-57
l-112 98l-113 -98h-55l121 175v0z" />
    <glyph glyph-name="guilsinglright" unicode="&#xd5;" horiz-adv-x="833" 
d="M427 695q168 -1 264 -90.5t96 -260.5q0 -177 -104 -269t-276 -92q-168 0 -264 89t-96 260q0 177 104 269.5t276 92.5v1zM427 639q-139 -1 -184.5 -89t-45.5 -201q0 -124 52 -217.5t158 -93.5q140 0 185 88t45 200q0 124 -52 218t-158 94v1zM556 885h43
q-11 -48 -38.5 -87.5t-82.5 -39.5q-12 0 -26 3.5t-28 9.5q-6 3 -13 6l-14 6q-20 10 -39.5 17t-36.5 7t-28 -12t-16 -27q-1 -2 -1.5 -4.5t-1.5 -4.5l-40 1q0 9 4 23.5t11 30.5q13 26 38 48t65 22q21 0 40 -7.5t38 -16.5t37.5 -16.5t36.5 -7.5q21 0 30.5 10.5t16.5 26.5
q1 3 2.5 5.5t2.5 5.5v1z" />
    <glyph glyph-name="Odieresis" unicode="&#xd6;" horiz-adv-x="833" 
d="M427 695q168 -1 264 -90.5t96 -260.5q0 -177 -104 -269t-276 -92q-168 0 -264 89t-96 260q0 177 104 269.5t276 92.5v1zM427 639q-139 -1 -184.5 -89t-45.5 -201q0 -124 52 -217.5t158 -93.5q140 0 185 88t45 200q0 124 -52 218t-158 94v1zM309 895q28 -1 47.5 -20.5
t19.5 -47.5t-19.5 -47.5t-47.5 -19.5t-47.5 19.5t-19.5 47.5t19.5 47.5t47.5 19.5v1zM524 895q28 -1 47.5 -20.5t19.5 -47.5t-19.5 -47.5t-47.5 -19.5t-47.5 19.5t-19.5 47.5t19.5 47.5t47.5 19.5v1z" />
    <glyph glyph-name="multiply" unicode="&#xd7;" 
 />
    <glyph glyph-name="plusminus" unicode="&#xd8;" horiz-adv-x="833" 
d="M160 62l-90 -82l-38 40l91 83q-44 46 -60 102.5t-16 126.5q0 177 104 269.5t276 92.5q80 0 146 -20t109 -58l89 82l37 -39l-89 -82q2 -4 4 -7t4 -5q36 -51 48 -104.5t12 -116.5q0 -177 -104 -269t-276 -92q-85 0 -149.5 21t-97.5 57v1zM615 481l-373 -343
q35 -55 75.5 -77.5t89.5 -22.5q140 0 185 88t45 200q0 16 -0.5 35t-2.5 38q-3 22 -7 43.5t-12 37.5v1zM222 192l370 342q-31 58 -72.5 81t-92.5 23q-139 0 -184.5 -88t-45.5 -201q0 -16 1 -34.5t3 -37.5q3 -24 8 -46.5t13 -39.5v1z" />
    <glyph glyph-name="Thorn" unicode="&#xd9;" horiz-adv-x="778" 
d="M111 177v366q0 31 -1 51t-6 29q-4 8 -12.5 12t-28.5 5l-37 4v37q10 -1 21.5 -1.5t23.5 -0.5q25 -1 53 -1.5t58 -0.5t57.5 0.5t52.5 1.5q12 0 23.5 0.5t21.5 0.5v-36l-37 -3q-19 -2 -28 -6t-13 -12q-4 -9 -5.5 -29t-1.5 -52v-247q0 -107 25.5 -169t152.5 -62
q125 0 155.5 64t30.5 173v242q0 31 -1 51t-6 29q-4 8 -12.5 12t-28.5 5l-37 4v37q10 -1 19.5 -1.5t18.5 -0.5q5 0 10 -0.5t10 -0.5q14 0 28.5 -0.5t28.5 -0.5q19 0 38 0.5t38 1.5q10 0 19.5 0.5t18.5 0.5v-36l-37 -3q-19 -2 -28 -6t-13 -12q-4 -9 -5.5 -29t-1.5 -52v-291
q0 -138 -71 -203t-207 -65q-142 0 -214 54t-72 139v1zM423 730l-131 81q-2 0 -3.5 1t-3.5 2q-1 1 -1.5 1t-0.5 1q-16 9 -29 20.5t-13 33.5q0 18 11 31t32 13q18 0 30 -6.5t23 -16.5q3 -4 6.5 -7t6.5 -7l129 -147h-56v0z" />
    <glyph glyph-name="Eth" unicode="&#xda;" horiz-adv-x="778" 
d="M111 177v366q0 31 -1 51t-6 29q-4 8 -12.5 12t-28.5 5l-37 4v37q10 -1 21.5 -1.5t23.5 -0.5q25 -1 53 -1.5t58 -0.5t57.5 0.5t52.5 1.5q12 0 23.5 0.5t21.5 0.5v-36l-37 -3q-19 -2 -28 -6t-13 -12q-4 -9 -5.5 -29t-1.5 -52v-247q0 -107 25.5 -169t152.5 -62
q125 0 155.5 64t30.5 173v242q0 31 -1 51t-6 29q-4 8 -12.5 12t-28.5 5l-37 4v37q10 -1 19.5 -1.5t18.5 -0.5q5 0 10 -0.5t10 -0.5q14 0 28.5 -0.5t28.5 -0.5q19 0 38 0.5t38 1.5q10 0 19.5 0.5t18.5 0.5v-36l-37 -3q-19 -2 -28 -6t-13 -12q-4 -9 -5.5 -29t-1.5 -52v-291
q0 -138 -71 -203t-207 -65q-142 0 -214 54t-72 139v1zM500 811l-131 -81h-56l129 148q3 3 6.5 6t6.5 7q11 10 23.5 16.5t29.5 6.5q21 0 32 -13t11 -31q0 -22 -13 -33.5t-29 -20.5q0 -1 -0.5 -1t-1.5 -1q-2 -1 -3.5 -2t-3.5 -2v1z" />
    <glyph glyph-name="eth" unicode="&#xdb;" horiz-adv-x="778" 
d="M111 177v366q0 31 -1 51t-6 29q-4 8 -12.5 12t-28.5 5l-37 4v37q10 -1 21.5 -1.5t23.5 -0.5q25 -1 53 -1.5t58 -0.5t57.5 0.5t52.5 1.5q12 0 23.5 0.5t21.5 0.5v-36l-37 -3q-19 -2 -28 -6t-13 -12q-4 -9 -5.5 -29t-1.5 -52v-247q0 -107 25.5 -169t152.5 -62
q125 0 155.5 64t30.5 173v242q0 31 -1 51t-6 29q-4 8 -12.5 12t-28.5 5l-37 4v37q10 -1 19.5 -1.5t18.5 -0.5q5 0 10 -0.5t10 -0.5q14 0 28.5 -0.5t28.5 -0.5q19 0 38 0.5t38 1.5q10 0 19.5 0.5t18.5 0.5v-36l-37 -3q-19 -2 -28 -6t-13 -12q-4 -9 -5.5 -29t-1.5 -52v-291
q0 -138 -71 -203t-207 -65q-142 0 -214 54t-72 139v1zM354 905h93l123 -175h-57l-112 98l-113 -98h-55l121 175v0z" />
    <glyph glyph-name="Udieresis" unicode="&#xdc;" horiz-adv-x="778" 
d="M111 177v366q0 31 -1 51t-6 29q-4 8 -12.5 12t-28.5 5l-37 4v37q10 -1 21.5 -1.5t23.5 -0.5q25 -1 53 -1.5t58 -0.5t57.5 0.5t52.5 1.5q12 0 23.5 0.5t21.5 0.5v-36l-37 -3q-19 -2 -28 -6t-13 -12q-4 -9 -5.5 -29t-1.5 -52v-247q0 -107 25.5 -169t152.5 -62
q125 0 155.5 64t30.5 173v242q0 31 -1 51t-6 29q-4 8 -12.5 12t-28.5 5l-37 4v37q10 -1 19.5 -1.5t18.5 -0.5q5 0 10 -0.5t10 -0.5q14 0 28.5 -0.5t28.5 -0.5q19 0 38 0.5t38 1.5q10 0 19.5 0.5t18.5 0.5v-36l-37 -3q-19 -2 -28 -6t-13 -12q-4 -9 -5.5 -29t-1.5 -52v-291
q0 -138 -71 -203t-207 -65q-142 0 -214 54t-72 139v1zM294 895q28 -1 47.5 -20.5t19.5 -47.5t-19.5 -47.5t-47.5 -19.5t-47.5 19.5t-19.5 47.5t19.5 47.5t47.5 19.5v1zM509 895q28 -1 47.5 -20.5t19.5 -47.5t-19.5 -47.5t-47.5 -19.5t-47.5 19.5t-19.5 47.5t19.5 47.5
t47.5 19.5v1z" />
    <glyph glyph-name="Yacute" unicode="&#xdd;" 
 />
    <glyph glyph-name="glyph236" unicode="&#xde;" horiz-adv-x="611" 
d="M265 487v-352v-7.5v-6.5q-1 -3 -1 -6v-6q0 -21 2 -35t6 -21q3 -6 12.5 -9t28.5 -5l47 -2v-40q-13 0 -26 0.5t-26 0.5q-27 1 -55 1.5t-58 0.5t-58 -0.5t-53 -1.5q-12 0 -23.5 -0.5t-21.5 -0.5v40l37 3q20 1 29 4t12 9q5 9 6 29.5t1 51.5v409q0 31 -1 51t-6 29
q-4 8 -12.5 12t-28.5 5l-37 4v37q10 -1 21.5 -1.5t23.5 -0.5q25 -1 53 -1.5t58 -0.5t57.5 0.5t52.5 1.5q12 0 23.5 0.5t21.5 0.5v-36l-37 -3q-19 -2 -28 -6t-13 -12q-4 -9 -5.5 -28.5t-1.5 -46.5q14 -1 31 -2t51 -1h6.5h7.5q80 -1 146.5 -25.5t66.5 -122.5
q0 -95 -58.5 -151.5t-128.5 -61.5q-4 -1 -7.5 -1h-6.5q-13 0 -23.5 1t-19.5 3q-5 1 -10 1.5t-9 1.5l-17 36l10 10q11 -5 24 -6.5t32 -1.5q38 0 54 35.5t16 81.5q0 69 -18.5 109.5t-64.5 40.5q-26 0 -48 -1.5t-34 -7.5v1z" />
    <glyph glyph-name="germandbls" unicode="&#xdf;" horiz-adv-x="611" 
d="M105 100v268h-71v23l69 45v73q0 31 25 65.5t74 73.5q13 10 25.5 19t24.5 17q26 17 54.5 26t66.5 9q65 0 106.5 -38t41.5 -105q0 -9 -0.5 -18.5t-1.5 -18.5q-3 -23 -7.5 -45.5t-10.5 -44.5q-1 -5 -2 -9.5t-2 -9.5l-6 -25l-13 -9q-9 7 -20.5 11.5t-23.5 5.5q-3 1 -5.5 1
h-4.5h-3.5h-3.5q-16 -2 -29 -11t-13 -27q0 -20 11 -32t25 -20q5 -4 10.5 -6.5t10.5 -5.5l79 -45q28 -17 41 -39.5t13 -54.5q0 -29 -6 -48.5t-19 -36.5q-5 -7 -12 -14l-15 -15l-45 -41q-6 -7 -13 -12.5t-15 -7.5q-1 -1 -3 -1.5t-4 -0.5q-9 -3 -21 -6t-25 -5q-7 -1 -13.5 -1.5
t-12.5 -0.5t-12.5 1t-13.5 2l-18 6t-17 6q-3 2 -6 3t-5 2v-6q-8 0 -17.5 0.5t-18.5 0.5q-20 1 -41 1.5t-43 0.5q-21 0 -43 -0.5t-46 -1.5q-12 0 -24.5 -0.5t-25.5 -0.5v37l39 2q16 0 23 4.5t9 11.5q2 8 3 18.5t1 28.5v1zM227 470v-371q0 -24 4 -42.5t28 -20.5l29 -2l9 78
l33 6l4 -54q4 -4 8.5 -6.5t8.5 -4.5q11 -7 22.5 -10.5t25.5 -3.5q26 0 46 16.5t20 43.5q0 28 -20 46.5t-47 34.5q-5 3 -10.5 6.5t-10.5 6.5q-1 0 -1.5 0.5l-1.5 1.5q-32 20 -59 44.5t-27 65.5q0 40 17 66.5t43 49.5q5 5 10.5 9.5t10.5 8.5q14 11 30.5 18.5t35.5 7.5h3.5h2.5
q0 3 0.5 6.5t1.5 6.5q2 13 3.5 26.5t1.5 26.5q0 50 -29 85.5t-82 35.5h-8t-7 -1q-29 -3 -54.5 -20t-32.5 -47q-3 -13 -4.5 -28.5t-2.5 -31.5q-1 -14 -1 -28v-27v1z" />
    <glyph glyph-name="agrave" unicode="&#xe0;" horiz-adv-x="500" 
d="M211 257l88 18q0 52 -24 84.5t-80 32.5q-5 0 -11 -0.5t-13 -1.5q-11 -2 -20.5 -5t-11.5 -7l-22 -49l-30 7v69l53 32q32 19 62 26t54 7q65 0 115 -31.5t50 -108.5v-2.5v-3.5q0 -10 -0.5 -20.5t-0.5 -20.5q-1 -20 -1.5 -40.5t-0.5 -41.5q0 -15 0.5 -30.5t0.5 -31.5
q0 -5 0.5 -10.5t0.5 -10.5q0 -10 0.5 -20.5t0.5 -20.5q1 -19 6.5 -29t20.5 -12l30 -2v-37q-8 0 -15.5 0.5t-15.5 0.5q-8 1 -16 1t-16 1h-13h-12q-14 0 -28.5 -0.5t-29.5 -1.5q-8 0 -16 -0.5t-17 -0.5l-5 8l5 62l-93 -72q-7 -6 -16 -8.5t-18 -2.5q-6 -1 -11 -1h-10
q-55 0 -83 34t-28 87q0 6 0.5 11.5t0.5 11.5q3 24 13.5 46.5t31.5 36.5q22 15 47.5 24.5t51.5 15.5q7 2 13.5 3.5t12.5 2.5v1zM299 115v118l-45 -12q-3 -2 -5.5 -2.5t-5.5 -1.5q-35 -10 -58 -26.5t-23 -61.5q0 -31 16 -45.5t38 -14.5q6 0 13 1.5t13 3.5q13 5 25 12t21 15
q3 4 6 7t5 6v1zM284 526l-131 81q-2 0 -3.5 1t-3.5 2q-1 1 -1.5 1t-0.5 1q-16 9 -29 20.5t-13 33.5q0 18 11 31t32 13q18 0 30 -6.5t23 -16.5q3 -4 6.5 -7t6.5 -7l129 -147h-56v0z" />
    <glyph glyph-name="aacute" unicode="&#xe1;" horiz-adv-x="500" 
d="M211 257l88 18q0 52 -24 84.5t-80 32.5q-5 0 -11 -0.5t-13 -1.5q-11 -2 -20.5 -5t-11.5 -7l-22 -49l-30 7v69l53 32q32 19 62 26t54 7q65 0 115 -31.5t50 -108.5v-2.5v-3.5q0 -10 -0.5 -20.5t-0.5 -20.5q-1 -20 -1.5 -40.5t-0.5 -41.5q0 -15 0.5 -30.5t0.5 -31.5
q0 -5 0.5 -10.5t0.5 -10.5q0 -10 0.5 -20.5t0.5 -20.5q1 -19 6.5 -29t20.5 -12l30 -2v-37q-8 0 -15.5 0.5t-15.5 0.5q-8 1 -16 1t-16 1h-13h-12q-14 0 -28.5 -0.5t-29.5 -1.5q-8 0 -16 -0.5t-17 -0.5l-5 8l5 62l-93 -72q-7 -6 -16 -8.5t-18 -2.5q-6 -1 -11 -1h-10
q-55 0 -83 34t-28 87q0 6 0.5 11.5t0.5 11.5q3 24 13.5 46.5t31.5 36.5q22 15 47.5 24.5t51.5 15.5q7 2 13.5 3.5t12.5 2.5v1zM299 115v118l-45 -12q-3 -2 -5.5 -2.5t-5.5 -1.5q-35 -10 -58 -26.5t-23 -61.5q0 -31 16 -45.5t38 -14.5q6 0 13 1.5t13 3.5q13 5 25 12t21 15
q3 4 6 7t5 6v1zM349 607l-131 -81h-56l129 148q3 3 6.5 6t6.5 7q11 10 23.5 16.5t29.5 6.5q21 0 32 -13t11 -31q0 -22 -13 -33.5t-29 -20.5q0 -1 -0.5 -1t-1.5 -1q-2 -1 -3.5 -2t-3.5 -2v1z" />
    <glyph glyph-name="acircumflex" unicode="&#xe2;" horiz-adv-x="500" 
d="M211 257l88 18q0 52 -24 84.5t-80 32.5q-5 0 -11 -0.5t-13 -1.5q-11 -2 -20.5 -5t-11.5 -7l-22 -49l-30 7v69l53 32q32 19 62 26t54 7q65 0 115 -31.5t50 -108.5v-2.5v-3.5q0 -10 -0.5 -20.5t-0.5 -20.5q-1 -20 -1.5 -40.5t-0.5 -41.5q0 -15 0.5 -30.5t0.5 -31.5
q0 -5 0.5 -10.5t0.5 -10.5q0 -10 0.5 -20.5t0.5 -20.5q1 -19 6.5 -29t20.5 -12l30 -2v-37q-8 0 -15.5 0.5t-15.5 0.5q-8 1 -16 1t-16 1h-13h-12q-14 0 -28.5 -0.5t-29.5 -1.5q-8 0 -16 -0.5t-17 -0.5l-5 8l5 62l-93 -72q-7 -6 -16 -8.5t-18 -2.5q-6 -1 -11 -1h-10
q-55 0 -83 34t-28 87q0 6 0.5 11.5t0.5 11.5q3 24 13.5 46.5t31.5 36.5q22 15 47.5 24.5t51.5 15.5q7 2 13.5 3.5t12.5 2.5v1zM299 115v118l-45 -12q-3 -2 -5.5 -2.5t-5.5 -1.5q-35 -10 -58 -26.5t-23 -61.5q0 -31 16 -45.5t38 -14.5q6 0 13 1.5t13 3.5q13 5 25 12t21 15
q3 4 6 7t5 6v1zM203 701h93l123 -175h-57l-112 98l-113 -98h-55l121 175v0z" />
    <glyph glyph-name="atilde" unicode="&#xe3;" horiz-adv-x="500" 
d="M211 257l88 18q0 52 -24 84.5t-80 32.5q-5 0 -11 -0.5t-13 -1.5q-11 -2 -20.5 -5t-11.5 -7l-22 -49l-30 7v69l53 32q32 19 62 26t54 7q65 0 115 -31.5t50 -108.5v-2.5v-3.5q0 -10 -0.5 -20.5t-0.5 -20.5q-1 -20 -1.5 -40.5t-0.5 -41.5q0 -15 0.5 -30.5t0.5 -31.5
q0 -5 0.5 -10.5t0.5 -10.5q0 -10 0.5 -20.5t0.5 -20.5q1 -19 6.5 -29t20.5 -12l30 -2v-37q-8 0 -15.5 0.5t-15.5 0.5q-8 1 -16 1t-16 1h-13h-12q-14 0 -28.5 -0.5t-29.5 -1.5q-8 0 -16 -0.5t-17 -0.5l-5 8l5 62l-93 -72q-7 -6 -16 -8.5t-18 -2.5q-6 -1 -11 -1h-10
q-55 0 -83 34t-28 87q0 6 0.5 11.5t0.5 11.5q3 24 13.5 46.5t31.5 36.5q22 15 47.5 24.5t51.5 15.5q7 2 13.5 3.5t12.5 2.5v1zM299 115v118l-45 -12q-3 -2 -5.5 -2.5t-5.5 -1.5q-35 -10 -58 -26.5t-23 -61.5q0 -31 16 -45.5t38 -14.5q6 0 13 1.5t13 3.5q13 5 25 12t21 15
q3 4 6 7t5 6v1zM390 673h43q-11 -48 -38.5 -87.5t-82.5 -39.5q-12 0 -26 3.5t-28 9.5q-6 3 -13 6l-14 6q-20 10 -39.5 17t-36.5 7t-28 -12t-16 -27q-1 -2 -1.5 -4.5t-1.5 -4.5l-40 1q0 9 4 23.5t11 30.5q13 26 38 48t65 22q21 0 40 -7.5t38 -16.5t37.5 -16.5t36.5 -7.5
q21 0 30.5 10.5t16.5 26.5q1 3 2.5 5.5t2.5 5.5v1z" />
    <glyph glyph-name="adieresis" unicode="&#xe4;" horiz-adv-x="500" 
d="M211 257l88 18q0 52 -24 84.5t-80 32.5q-5 0 -11 -0.5t-13 -1.5q-11 -2 -20.5 -5t-11.5 -7l-22 -49l-30 7v69l53 32q32 19 62 26t54 7q65 0 115 -31.5t50 -108.5v-2.5v-3.5q0 -10 -0.5 -20.5t-0.5 -20.5q-1 -20 -1.5 -40.5t-0.5 -41.5q0 -15 0.5 -30.5t0.5 -31.5
q0 -5 0.5 -10.5t0.5 -10.5q0 -10 0.5 -20.5t0.5 -20.5q1 -19 6.5 -29t20.5 -12l30 -2v-37q-8 0 -15.5 0.5t-15.5 0.5q-8 1 -16 1t-16 1h-13h-12q-14 0 -28.5 -0.5t-29.5 -1.5q-8 0 -16 -0.5t-17 -0.5l-5 8l5 62l-93 -72q-7 -6 -16 -8.5t-18 -2.5q-6 -1 -11 -1h-10
q-55 0 -83 34t-28 87q0 6 0.5 11.5t0.5 11.5q3 24 13.5 46.5t31.5 36.5q22 15 47.5 24.5t51.5 15.5q7 2 13.5 3.5t12.5 2.5v1zM299 115v118l-45 -12q-3 -2 -5.5 -2.5t-5.5 -1.5q-35 -10 -58 -26.5t-23 -61.5q0 -31 16 -45.5t38 -14.5q6 0 13 1.5t13 3.5q13 5 25 12t21 15
q3 4 6 7t5 6v1zM143 691q28 -1 47.5 -20.5t19.5 -47.5t-19.5 -47.5t-47.5 -19.5t-47.5 19.5t-19.5 47.5t19.5 47.5t47.5 19.5v1zM358 691q28 -1 47.5 -20.5t19.5 -47.5t-19.5 -47.5t-47.5 -19.5t-47.5 19.5t-19.5 47.5t19.5 47.5t47.5 19.5v1z" />
    <glyph glyph-name="aring" unicode="&#xe5;" horiz-adv-x="500" 
d="M211 257l88 18q0 52 -24 84.5t-80 32.5q-5 0 -11 -0.5t-13 -1.5q-11 -2 -20.5 -5t-11.5 -7l-22 -49l-30 7v69l53 32q32 19 62 26t54 7q65 0 115 -31.5t50 -108.5v-2.5v-3.5q0 -10 -0.5 -20.5t-0.5 -20.5q-1 -20 -1.5 -40.5t-0.5 -41.5q0 -15 0.5 -30.5t0.5 -31.5
q0 -5 0.5 -10.5t0.5 -10.5q0 -10 0.5 -20.5t0.5 -20.5q1 -19 6.5 -29t20.5 -12l30 -2v-37q-8 0 -15.5 0.5t-15.5 0.5q-8 1 -16 1t-16 1h-13h-12q-14 0 -28.5 -0.5t-29.5 -1.5q-8 0 -16 -0.5t-17 -0.5l-5 8l5 62l-93 -72q-7 -6 -16 -8.5t-18 -2.5q-6 -1 -11 -1h-10
q-55 0 -83 34t-28 87q0 6 0.5 11.5t0.5 11.5q3 24 13.5 46.5t31.5 36.5q22 15 47.5 24.5t51.5 15.5q7 2 13.5 3.5t12.5 2.5v1zM299 115v118l-45 -12q-3 -2 -5.5 -2.5t-5.5 -1.5q-35 -10 -58 -26.5t-23 -61.5q0 -31 16 -45.5t38 -14.5q6 0 13 1.5t13 3.5q13 5 25 12t21 15
q3 4 6 7t5 6v1zM251 700q41 -1 70.5 -30.5t29.5 -70.5t-29.5 -70.5t-70.5 -29.5t-70.5 29.5t-29.5 70.5t29.5 70.5t70.5 29.5v1zM251 650q-21 -1 -35.5 -15.5t-14.5 -35.5t14.5 -35.5t35.5 -14.5t35.5 14.5t14.5 35.5t-14.5 35.5t-35.5 14.5v1z" />
    <glyph glyph-name="Otilde" unicode="&#xe6;" horiz-adv-x="778" 
d="M573 223h-131q0 -74 40.5 -122t118.5 -48q12 0 25 2.5t27 6.5q15 5 29 12t27 14l12 -14l-22 -48q-23 -13 -43 -21t-39 -13t-37.5 -7t-40.5 -2h-4h-3q-54 1 -104.5 21t-83.5 73l-114 -81q-4 -3 -13 -5.5t-19 -4.5q-8 -1 -15 -2t-12 -1q-55 0 -90 34t-35 86q0 36 12.5 66.5
t39.5 43.5q34 17 67.5 26.5t65.5 16.5l88 19q0 52 -24.5 88t-84.5 36q-18 0 -35.5 -6t-34.5 -18l-16 -41l-32 4v67l53 32q32 19 62 26t54 7q46 0 76 -9t57 -33q3 -2 5.5 -4.5l5.5 -5.5q29 26 65 39t78 13q73 0 128 -44t55 -132v-51q-11 -4 -22.5 -6.5t-22.5 -4.5
q-30 -6 -59.5 -8t-53.5 -2v1zM319 115v114l-55 -13q-4 -2 -7.5 -3t-6.5 -2q-29 -8 -53.5 -26.5t-24.5 -57.5q0 -30 16.5 -44t47.5 -14q6 0 13 1.5t13 3.5q13 5 25 12t21 15q3 4 6 7t5 6v1zM522 415q-43 -1 -64.5 -35t-21.5 -105q7 0 14 -0.5t14 -0.5q14 -1 28 -1.5t28 -0.5
t28 0.5t28 1.5q7 0 14 0.5t14 0.5q0 9 -0.5 19t-1.5 20q-3 37 -19.5 68.5t-60.5 31.5v1z" />
    <glyph glyph-name="ccedilla" unicode="&#xe7;" horiz-adv-x="444" 
d="M178 -103l43 96h41l-28 -64q13 3 23.5 4.5t19.5 1.5q44 0 61.5 -22.5t17.5 -52.5q0 -38 -28 -56.5t-62 -24.5q-13 -2 -25.5 -3t-23.5 -1q-9 0 -19.5 1.5t-22.5 3.5q-13 3 -25 6t-21 7l16 37q6 -1 11.5 -2.5t10.5 -2.5q11 -2 22.5 -3t21.5 -1q22 0 36.5 8t14.5 29
q0 18 -11 26.5t-31 8.5q-7 0 -15 -1.5t-17 -2.5l-10 8v0zM390 297h-36l-7 60q-2 14 -18.5 24t-35.5 14q-9 2 -17 3t-15 1q-59 0 -79 -41.5t-21 -91.5v-4v-4q0 -77 36.5 -141t125.5 -64q20 0 40 4.5t42 14.5l9 -9l-21 -46q-26 -15 -54.5 -23t-58.5 -10q-4 -1 -8.5 -1h-8.5
q-117 0 -171.5 66.5t-54.5 169.5q0 28 3 53.5t17 51.5q12 23 36 46t65 48l52 32q23 13 46.5 16.5t52.5 3.5q22 0 44.5 -5t49.5 -15l7 -12q-7 -34 -11.5 -69t-8.5 -73v1z" />
    <glyph glyph-name="egrave" unicode="&#xe8;" horiz-adv-x="500" 
d="M303 223h-131q0 -74 40.5 -122t118.5 -48q12 0 25 2.5t27 6.5q15 5 29 12t27 14l12 -14l-22 -48q-23 -13 -43 -21t-39 -13t-37.5 -7t-40.5 -2q-109 0 -168 61.5t-59 168.5q0 62 16 115.5t79 90.5l47 29q19 10 39.5 16t42.5 6q83 0 139 -44t56 -132v-51q-11 -4 -22.5 -6.5
t-22.5 -4.5q-30 -6 -59.5 -8t-53.5 -2v1zM252 415q-43 -1 -64.5 -35t-21.5 -105q7 0 14 -0.5t14 -0.5q14 -1 28 -1.5t28 -0.5t28 0.5t28 1.5q7 0 14 0.5t14 0.5q0 9 -0.5 19t-1.5 20q-3 37 -19.5 68.5t-60.5 31.5v1zM284 526l-131 81q-2 0 -3.5 1t-3.5 2q-1 1 -1.5 1t-0.5 1
q-16 9 -29 20.5t-13 33.5q0 18 11 31t32 13q18 0 30 -6.5t23 -16.5q3 -4 6.5 -7t6.5 -7l129 -147h-56v0z" />
    <glyph glyph-name="eacute" unicode="&#xe9;" horiz-adv-x="500" 
d="M303 223h-131q0 -74 40.5 -122t118.5 -48q12 0 25 2.5t27 6.5q15 5 29 12t27 14l12 -14l-22 -48q-23 -13 -43 -21t-39 -13t-37.5 -7t-40.5 -2q-109 0 -168 61.5t-59 168.5q0 62 16 115.5t79 90.5l47 29q19 10 39.5 16t42.5 6q83 0 139 -44t56 -132v-51q-11 -4 -22.5 -6.5
t-22.5 -4.5q-30 -6 -59.5 -8t-53.5 -2v1zM252 415q-43 -1 -64.5 -35t-21.5 -105q7 0 14 -0.5t14 -0.5q14 -1 28 -1.5t28 -0.5t28 0.5t28 1.5q7 0 14 0.5t14 0.5q0 9 -0.5 19t-1.5 20q-3 37 -19.5 68.5t-60.5 31.5v1zM349 607l-131 -81h-56l129 148q3 3 6.5 6t6.5 7
q11 10 23.5 16.5t29.5 6.5q21 0 32 -13t11 -31q0 -22 -13 -33.5t-29 -20.5q0 -1 -0.5 -1t-1.5 -1q-2 -1 -3.5 -2t-3.5 -2v1z" />
    <glyph glyph-name="ecircumflex" unicode="&#xea;" horiz-adv-x="500" 
d="M303 223h-131q0 -74 40.5 -122t118.5 -48q12 0 25 2.5t27 6.5q15 5 29 12t27 14l12 -14l-22 -48q-23 -13 -43 -21t-39 -13t-37.5 -7t-40.5 -2q-109 0 -168 61.5t-59 168.5q0 62 16 115.5t79 90.5l47 29q19 10 39.5 16t42.5 6q83 0 139 -44t56 -132v-51q-11 -4 -22.5 -6.5
t-22.5 -4.5q-30 -6 -59.5 -8t-53.5 -2v1zM252 415q-43 -1 -64.5 -35t-21.5 -105q7 0 14 -0.5t14 -0.5q14 -1 28 -1.5t28 -0.5t28 0.5t28 1.5q7 0 14 0.5t14 0.5q0 9 -0.5 19t-1.5 20q-3 37 -19.5 68.5t-60.5 31.5v1zM215 701h93l123 -175h-57l-112 98l-113 -98h-55l121 175
v0z" />
    <glyph glyph-name="edieresis" unicode="&#xeb;" horiz-adv-x="500" 
d="M303 223h-131q0 -74 40.5 -122t118.5 -48q12 0 25 2.5t27 6.5q15 5 29 12t27 14l12 -14l-22 -48q-23 -13 -43 -21t-39 -13t-37.5 -7t-40.5 -2q-109 0 -168 61.5t-59 168.5q0 62 16 115.5t79 90.5l47 29q19 10 39.5 16t42.5 6q83 0 139 -44t56 -132v-51q-11 -4 -22.5 -6.5
t-22.5 -4.5q-30 -6 -59.5 -8t-53.5 -2v1zM252 415q-43 -1 -64.5 -35t-21.5 -105q7 0 14 -0.5t14 -0.5q14 -1 28 -1.5t28 -0.5t28 0.5t28 1.5q7 0 14 0.5t14 0.5q0 9 -0.5 19t-1.5 20q-3 37 -19.5 68.5t-60.5 31.5v1zM151 691q28 -1 47.5 -20.5t19.5 -47.5t-19.5 -47.5
t-47.5 -19.5t-47.5 19.5t-19.5 47.5t19.5 47.5t47.5 19.5v1zM366 691q28 -1 47.5 -20.5t19.5 -47.5t-19.5 -47.5t-47.5 -19.5t-47.5 19.5t-19.5 47.5t19.5 47.5t47.5 19.5v1z" />
    <glyph glyph-name="igrave" unicode="&#xec;" horiz-adv-x="333" 
d="M105 100v219q0 42 -4 55t-22 14l-45 4v36q3 -1 6 -0.5t7 1.5q25 3 50 7t50 12l70 23l10 -6v-365q0 -19 1 -29.5t3 -18.5q2 -7 9 -11t23 -6l35 -1v-37h-7.5h-6.5q-7 1 -14.5 1h-14.5q-22 1 -44.5 1.5t-47.5 0.5q-22 0 -43.5 -0.5t-42.5 -1.5q-11 0 -21.5 -0.5t-21.5 -0.5
v37l35 2q16 1 23 5t9 11q2 8 3 18.5t1 28.5v1zM200 526l-131 81q-2 0 -3.5 1t-3.5 2q-1 1 -1.5 1t-0.5 1q-16 9 -29 20.5t-13 33.5q0 18 11 31t32 13q18 0 30 -6.5t23 -16.5q3 -4 6.5 -7t6.5 -7l129 -147h-56v0z" />
    <glyph glyph-name="iacute" unicode="&#xed;" horiz-adv-x="333" 
d="M105 100v219q0 42 -4 55t-22 14l-45 4v36q3 -1 6 -0.5t7 1.5q25 3 50 7t50 12l70 23l10 -6v-365q0 -19 1 -29.5t3 -18.5q2 -7 9 -11t23 -6l35 -1v-37h-7.5h-6.5q-7 1 -14.5 1h-14.5q-22 1 -44.5 1.5t-47.5 0.5q-22 0 -43.5 -0.5t-42.5 -1.5q-11 0 -21.5 -0.5t-21.5 -0.5
v37l35 2q16 1 23 5t9 11q2 8 3 18.5t1 28.5v1zM265 607l-131 -81h-56l129 148q3 3 6.5 6t6.5 7q11 10 23.5 16.5t29.5 6.5q21 0 32 -13t11 -31q0 -22 -13 -33.5t-29 -20.5q0 -1 -0.5 -1t-1.5 -1q-2 -1 -3.5 -2t-3.5 -2v1z" />
    <glyph glyph-name="icircumflex" unicode="&#xee;" horiz-adv-x="333" 
d="M105 100v219q0 42 -4 55t-22 14l-45 4v36q3 -1 6 -0.5t7 1.5q25 3 50 7t50 12l70 23l10 -6v-365q0 -19 1 -29.5t3 -18.5q2 -7 9 -11t23 -6l35 -1v-37h-7.5h-6.5q-7 1 -14.5 1h-14.5q-22 1 -44.5 1.5t-47.5 0.5q-22 0 -43.5 -0.5t-42.5 -1.5q-11 0 -21.5 -0.5t-21.5 -0.5
v37l35 2q16 1 23 5t9 11q2 8 3 18.5t1 28.5v1zM119 701h93l123 -175h-57l-112 98l-113 -98h-55l121 175v0z" />
    <glyph glyph-name="idieresis" unicode="&#xef;" horiz-adv-x="333" 
d="M105 100v219q0 42 -4 55t-22 14l-45 4v36q3 -1 6 -0.5t7 1.5q25 3 50 7t50 12l70 23l10 -6v-365q0 -19 1 -29.5t3 -18.5q2 -7 9 -11t23 -6l35 -1v-37h-7.5h-6.5q-7 1 -14.5 1h-14.5q-22 1 -44.5 1.5t-47.5 0.5q-22 0 -43.5 -0.5t-42.5 -1.5q-11 0 -21.5 -0.5t-21.5 -0.5
v37l35 2q16 1 23 5t9 11q2 8 3 18.5t1 28.5v1zM59 691q28 -1 47.5 -20.5t19.5 -47.5t-19.5 -47.5t-47.5 -19.5t-47 19.5t-19 47.5t19 47.5t47 19.5v1zM274 691q28 -1 47.5 -20.5t19.5 -47.5t-19.5 -47.5t-47.5 -19.5t-47.5 19.5t-19.5 47.5t19.5 47.5t47.5 19.5v1z" />
    <glyph glyph-name="glyph233" unicode="&#xf0;" horiz-adv-x="556" 
d="M474 663l-116 -54q68 -64 113.5 -150t45.5 -191v-3.5v-4.5q-2 -119 -65 -198t-188 -79q-115 0 -169.5 67.5t-54.5 173.5q0 116 63 181t172 65q12 0 21 -1t18 -3q4 -1 8 -2.5t8 -2.5q-3 13 -8.5 26.5t-13.5 26.5q-8 14 -18 27t-21 26l-133 -61l-18 38l121 56
q-16 15 -33 28t-34 24l-14 8t-14 7l40 53q10 -6 19.5 -10.5t19.5 -9.5q27 -14 51.5 -29t47.5 -33l134 63l18 -38v0zM285 31q45 -1 65 34t26 77q3 20 4 39t1 34q0 17 -0.5 39t-3.5 44q-6 47 -28 85.5t-74 38.5q-53 0 -73 -37t-24 -81q-1 -15 -1.5 -29t-0.5 -27q0 -18 1 -41
t4 -48q7 -48 29.5 -88.5t74.5 -40.5v1z" />
    <glyph glyph-name="ntilde" unicode="&#xf1;" horiz-adv-x="611" 
d="M95 100v219q0 42 -4 55t-22 14l-45 4v36q45 0 85 11t79 23q6 2 11.5 4t11.5 4l6 -5v-75l80 62q7 4 14 7.5t14 5.5q13 4 25.5 4.5t22.5 0.5q6 0 11.5 -0.5t11.5 -0.5q24 -3 46.5 -13t38.5 -26q26 -27 31.5 -64t5.5 -81v-185q0 -19 1 -29.5t3 -18.5q2 -7 9 -11t23 -6l33 -1
v-37q-9 0 -17.5 0.5t-16.5 0.5q-11 1 -20.5 1t-19.5 1h-12h-12q-18 0 -34 -0.5t-30 -1.5q-8 0 -15 -0.5t-14 -0.5v273q0 35 -6 56.5t-20 34.5q-13 13 -30.5 18t-44.5 5q-24 0 -44.5 -15.5t-29.5 -33.5q-2 -5 -3 -10t-1 -9v-216q0 -19 1 -29.5t3 -18.5q2 -7 9 -11t23 -6
l35 -1v-37h-7.5h-6.5q-7 1 -14.5 1h-14.5q-22 1 -44.5 1.5t-47.5 0.5q-22 0 -43.5 -0.5t-42.5 -1.5q-11 0 -21.5 -0.5t-21.5 -0.5v37l35 2q16 1 23 5t9 11q2 8 3 18.5t1 28.5v1zM445 673h43q-11 -48 -38.5 -87.5t-82.5 -39.5q-12 0 -26 3.5t-28 9.5q-6 3 -13 6l-14 6
q-20 10 -39.5 17t-36.5 7t-28 -12t-16 -27q-1 -2 -1.5 -4.5t-1.5 -4.5l-40 1q0 9 4 23.5t11 30.5q13 26 38 48t65 22q21 0 40 -7.5t38 -16.5t37.5 -16.5t36.5 -7.5q21 0 30.5 10.5t16.5 26.5q1 3 2.5 5.5t2.5 5.5v1z" />
    <glyph glyph-name="ograve" unicode="&#xf2;" horiz-adv-x="556" 
d="M285 471q115 -1 173.5 -62t58.5 -173q0 -121 -64 -187t-189 -66q-115 0 -169.5 67.5t-54.5 173.5q0 116 62.5 181t182.5 65v1zM286 31q48 -1 67.5 33t24.5 74q2 15 2.5 29.5t0.5 27.5q0 19 -0.5 44.5t-4.5 52.5q-7 49 -28.5 89.5t-71.5 40.5q-53 0 -73 -37t-25 -81
q-1 -15 -1.5 -29t-0.5 -27q0 -18 1 -41t5 -48q7 -48 29.5 -88.5t74.5 -40.5v1zM312 526l-131 81q-2 0 -3.5 1t-3.5 2q-1 1 -1.5 1t-0.5 1q-16 9 -29 20.5t-13 33.5q0 18 11 31t32 13q18 0 30 -6.5t23 -16.5q3 -4 6.5 -7t6.5 -7l129 -147h-56v0z" />
    <glyph glyph-name="oacute" unicode="&#xf3;" horiz-adv-x="556" 
d="M285 471q115 -1 173.5 -62t58.5 -173q0 -121 -64 -187t-189 -66q-115 0 -169.5 67.5t-54.5 173.5q0 116 62.5 181t182.5 65v1zM286 31q48 -1 67.5 33t24.5 74q2 15 2.5 29.5t0.5 27.5q0 19 -0.5 44.5t-4.5 52.5q-7 49 -28.5 89.5t-71.5 40.5q-53 0 -73 -37t-25 -81
q-1 -15 -1.5 -29t-0.5 -27q0 -18 1 -41t5 -48q7 -48 29.5 -88.5t74.5 -40.5v1zM377 607l-131 -81h-56l129 148q3 3 6.5 6t6.5 7q11 10 23.5 16.5t29.5 6.5q21 0 32 -13t11 -31q0 -22 -13 -33.5t-29 -20.5q0 -1 -0.5 -1t-1.5 -1q-2 -1 -3.5 -2t-3.5 -2v1z" />
    <glyph glyph-name="ocircumflex" unicode="&#xf4;" horiz-adv-x="556" 
d="M285 471q115 -1 173.5 -62t58.5 -173q0 -121 -64 -187t-189 -66q-115 0 -169.5 67.5t-54.5 173.5q0 116 62.5 181t182.5 65v1zM286 31q48 -1 67.5 33t24.5 74q2 15 2.5 29.5t0.5 27.5q0 19 -0.5 44.5t-4.5 52.5q-7 49 -28.5 89.5t-71.5 40.5q-53 0 -73 -37t-25 -81
q-1 -15 -1.5 -29t-0.5 -27q0 -18 1 -41t5 -48q7 -48 29.5 -88.5t74.5 -40.5v1zM231 701h93l123 -175h-57l-112 98l-113 -98h-55l121 175v0z" />
    <glyph glyph-name="otilde" unicode="&#xf5;" horiz-adv-x="556" 
d="M285 471q115 -1 173.5 -62t58.5 -173q0 -121 -64 -187t-189 -66q-115 0 -169.5 67.5t-54.5 173.5q0 116 62.5 181t182.5 65v1zM286 31q48 -1 67.5 33t24.5 74q2 15 2.5 29.5t0.5 27.5q0 19 -0.5 44.5t-4.5 52.5q-7 49 -28.5 89.5t-71.5 40.5q-53 0 -73 -37t-25 -81
q-1 -15 -1.5 -29t-0.5 -27q0 -18 1 -41t5 -48q7 -48 29.5 -88.5t74.5 -40.5v1zM418 673h43q-11 -48 -38.5 -87.5t-82.5 -39.5q-12 0 -26 3.5t-28 9.5q-6 3 -13 6l-14 6q-20 10 -39.5 17t-36.5 7t-28 -12t-16 -27q-1 -2 -1.5 -4.5t-1.5 -4.5l-40 1q0 9 4 23.5t11 30.5
q13 26 38 48t65 22q21 0 40 -7.5t38 -16.5t37.5 -16.5t36.5 -7.5q21 0 30.5 10.5t16.5 26.5q1 3 2.5 5.5t2.5 5.5v1z" />
    <glyph glyph-name="odieresis" unicode="&#xf6;" horiz-adv-x="556" 
d="M285 471q115 -1 173.5 -62t58.5 -173q0 -121 -64 -187t-189 -66q-115 0 -169.5 67.5t-54.5 173.5q0 116 62.5 181t182.5 65v1zM286 31q48 -1 67.5 33t24.5 74q2 15 2.5 29.5t0.5 27.5q0 19 -0.5 44.5t-4.5 52.5q-7 49 -28.5 89.5t-71.5 40.5q-53 0 -73 -37t-25 -81
q-1 -15 -1.5 -29t-0.5 -27q0 -18 1 -41t5 -48q7 -48 29.5 -88.5t74.5 -40.5v1zM171 691q28 -1 47.5 -20.5t19.5 -47.5t-19.5 -47.5t-47.5 -19.5t-47.5 19.5t-19.5 47.5t19.5 47.5t47.5 19.5v1zM386 691q28 -1 47.5 -20.5t19.5 -47.5t-19.5 -47.5t-47.5 -19.5t-47.5 19.5
t-19.5 47.5t19.5 47.5t47.5 19.5v1z" />
    <glyph glyph-name="Aacute" unicode="&#xf7;" 
 />
    <glyph glyph-name="OE" unicode="&#xf8;" horiz-adv-x="556" 
d="M510 468l24 -22l-60 -56q5 -7 8.5 -13t7.5 -12q17 -30 22 -60.5t5 -68.5q0 -121 -64 -187t-189 -66q-23 0 -56 6t-69 26q-8 5 -16 11t-16 13l-61 -57l-23 23l63 59q-20 22 -33 65t-13 95q0 116 62.5 181t182.5 65q59 0 101.5 -15.5t67.5 -41.5l56 55v0zM374 294
l-184 -175q14 -40 36.5 -64.5t59.5 -24.5q48 0 67.5 34t24.5 74q2 15 2.5 29.5t0.5 27.5q0 34 -0.5 51.5t-3.5 31.5q-1 4 -1.5 7.5t-1.5 7.5v1zM184 158l184 175q-10 34 -30 61.5t-62 27.5q-53 0 -73 -37t-25 -81q-1 -15 -1.5 -29t-0.5 -27t2 -37t6 -54v1z" />
    <glyph glyph-name="ugrave" unicode="&#xf9;" horiz-adv-x="611" 
d="M96 140v179q0 42 -4 55t-22 14l-45 4v36q3 -1 6 -0.5t7 1.5q25 3 50 7t50 12l70 23l10 -6v-261v-2.5v-1.5q0 -48 12 -88t69 -40q26 0 48.5 14.5t35.5 36.5q4 6 5.5 12.5t2.5 13.5q1 3 1 6.5v6.5v157q0 42 -4 55t-22 14l-45 4v36q3 -1 6 -0.5t7 1.5q25 3 50 7t50 12l70 23
l10 -6v-365q0 -19 1 -29.5t3 -18.5q2 -7 9 -11t23 -6l33 -1v-37h-4h-4q-8 0 -16.5 0.5t-16.5 0.5q-20 1 -38 1.5t-32 0.5q-8 0 -20.5 -0.5t-28.5 -1.5q-8 0 -17 -0.5t-19 -0.5l5 83l-76 -74q-9 -9 -23.5 -15t-30.5 -7q-2 -1 -4.5 -1h-5.5q-82 0 -119 42.5t-37 113.5v1z
M331 526l-131 81q-2 0 -3.5 1t-3.5 2q-1 1 -1.5 1t-0.5 1q-16 9 -29 20.5t-13 33.5q0 18 11 31t32 13q18 0 30 -6.5t23 -16.5q3 -4 6.5 -7t6.5 -7l129 -147h-56v0z" />
    <glyph glyph-name="uacute" unicode="&#xfa;" horiz-adv-x="611" 
d="M96 140v179q0 42 -4 55t-22 14l-45 4v36q3 -1 6 -0.5t7 1.5q25 3 50 7t50 12l70 23l10 -6v-261v-2.5v-1.5q0 -48 12 -88t69 -40q26 0 48.5 14.5t35.5 36.5q4 6 5.5 12.5t2.5 13.5q1 3 1 6.5v6.5v157q0 42 -4 55t-22 14l-45 4v36q3 -1 6 -0.5t7 1.5q25 3 50 7t50 12l70 23
l10 -6v-365q0 -19 1 -29.5t3 -18.5q2 -7 9 -11t23 -6l33 -1v-37h-4h-4q-8 0 -16.5 0.5t-16.5 0.5q-20 1 -38 1.5t-32 0.5q-8 0 -20.5 -0.5t-28.5 -1.5q-8 0 -17 -0.5t-19 -0.5l5 83l-76 -74q-9 -9 -23.5 -15t-30.5 -7q-2 -1 -4.5 -1h-5.5q-82 0 -119 42.5t-37 113.5v1z
M416 607l-131 -81h-56l129 148q3 3 6.5 6t6.5 7q11 10 23.5 16.5t29.5 6.5q21 0 32 -13t11 -31q0 -22 -13 -33.5t-29 -20.5q0 -1 -0.5 -1t-1.5 -1q-2 -1 -3.5 -2t-3.5 -2v1z" />
    <glyph glyph-name="ucircumflex" unicode="&#xfb;" horiz-adv-x="611" 
d="M96 140v179q0 42 -4 55t-22 14l-45 4v36q3 -1 6 -0.5t7 1.5q25 3 50 7t50 12l70 23l10 -6v-261v-2.5v-1.5q0 -48 12 -88t69 -40q26 0 48.5 14.5t35.5 36.5q4 6 5.5 12.5t2.5 13.5q1 3 1 6.5v6.5v157q0 42 -4 55t-22 14l-45 4v36q3 -1 6 -0.5t7 1.5q25 3 50 7t50 12l70 23
l10 -6v-365q0 -19 1 -29.5t3 -18.5q2 -7 9 -11t23 -6l33 -1v-37h-4h-4q-8 0 -16.5 0.5t-16.5 0.5q-20 1 -38 1.5t-32 0.5q-8 0 -20.5 -0.5t-28.5 -1.5q-8 0 -17 -0.5t-19 -0.5l5 83l-76 -74q-9 -9 -23.5 -15t-30.5 -7q-2 -1 -4.5 -1h-5.5q-82 0 -119 42.5t-37 113.5v1z
M258 701h93l123 -175h-57l-112 98l-113 -98h-55l121 175v0z" />
    <glyph glyph-name="udieresis" unicode="&#xfc;" horiz-adv-x="611" 
d="M96 140v179q0 42 -4 55t-22 14l-45 4v36q3 -1 6 -0.5t7 1.5q25 3 50 7t50 12l70 23l10 -6v-261v-2.5v-1.5q0 -48 12 -88t69 -40q26 0 48.5 14.5t35.5 36.5q4 6 5.5 12.5t2.5 13.5q1 3 1 6.5v6.5v157q0 42 -4 55t-22 14l-45 4v36q3 -1 6 -0.5t7 1.5q25 3 50 7t50 12l70 23
l10 -6v-365q0 -19 1 -29.5t3 -18.5q2 -7 9 -11t23 -6l33 -1v-37h-4h-4q-8 0 -16.5 0.5t-16.5 0.5q-20 1 -38 1.5t-32 0.5q-8 0 -20.5 -0.5t-28.5 -1.5q-8 0 -17 -0.5t-19 -0.5l5 83l-76 -74q-9 -9 -23.5 -15t-30.5 -7q-2 -1 -4.5 -1h-5.5q-82 0 -119 42.5t-37 113.5v1z
M198 691q28 -1 47.5 -20.5t19.5 -47.5t-19.5 -47.5t-47.5 -19.5t-47.5 19.5t-19.5 47.5t19.5 47.5t47.5 19.5v1zM413 691q28 -1 47.5 -20.5t19.5 -47.5t-19.5 -47.5t-47.5 -19.5t-47.5 19.5t-19.5 47.5t19.5 47.5t47.5 19.5v1z" />
    <glyph glyph-name="yacute" unicode="&#xfd;" 
 />
    <glyph glyph-name="glyph237" unicode="&#xfe;" horiz-adv-x="611" 
d="M96 -155v723q0 42 -4 55t-22 14l-53 4v36q35 3 64 7.5t57 12.5l72 23l8 -6v-331l61 49q19 14 42 26t62 12q80 0 130 -53.5t50 -132.5q0 -31 -6.5 -60.5t-16.5 -54.5q-9 -23 -22 -42.5t-27 -34.5q-6 -6 -12 -11.5t-12 -9.5q-9 -7 -18.5 -14t-18.5 -15q-10 -7 -20 -14.5
t-21 -14.5q-25 -15 -44.5 -22.5t-37.5 -7.5q-21 0 -41.5 4.5t-39.5 10.5q-2 0 -4 0.5t-4 1.5v-155q0 -18 1 -29t3 -18q2 -8 9 -12t23 -5l45 -2v-37q-13 0 -25.5 0.5t-24.5 0.5q-9 0 -17.5 0.5t-17.5 0.5q-14 1 -29 1h-31q-22 0 -43.5 -0.5t-42.5 -1.5q-11 0 -21.5 -0.5
t-21.5 -0.5v37l35 2q16 1 23 5t9 12q2 7 3 18t1 29v0zM218 331v-225q17 -27 44 -41.5t58 -14.5q56 0 81.5 40t32.5 88l2 24t1 23q0 60 -28.5 107.5t-96.5 47.5q-4 0 -8.5 -0.5t-8.5 -0.5q-23 -4 -44.5 -16.5t-32.5 -32.5v1z" />
    <glyph glyph-name="Egrave" unicode="&#xff;" horiz-adv-x="556" 
d="M231 343l84 -218l101 252q1 1 1.5 2.5t0.5 2.5q1 5 1.5 9.5t0.5 7.5q0 8 -7.5 13t-16.5 6h-1.5h-1.5l-33 3v38q8 -1 15.5 -1.5t15.5 -0.5q15 -1 31 -1.5t31 -0.5q16 0 31.5 0.5t30.5 1.5q8 0 15.5 0.5t15.5 0.5v-37l-26 -5q-3 -2 -5.5 -3t-5.5 -3q-8 -5 -15.5 -15.5
t-14.5 -26.5l-199 -462q-5 -12 -15 -34t-26 -47q-22 -34 -55 -62.5t-80 -28.5h-7.5t-7.5 1q-15 1 -30 5.5t-28 10.5l18 95l11 4q14 -17 32 -27t40 -10q29 0 52.5 28t37.5 63l23 56l-158 404q-3 8 -6.5 15.5t-7.5 13.5q-7 12 -13.5 18.5t-14.5 6.5l-35 3v38q11 -1 22 -1.5
t22 -0.5q6 0 11.5 -0.5t11.5 -0.5q16 0 33 -0.5t33 -0.5q22 0 44 0.5t44 1.5q11 0 22 0.5t22 0.5v-37l-35 -2q-10 -2 -18 -7.5t-8 -16.5q0 -3 0.5 -5.5t0.5 -5.5q2 -8 6 -18t10 -24v1zM183 691q28 -1 47.5 -20.5t19.5 -47.5t-19.5 -47.5t-47.5 -19.5t-47.5 19.5t-19.5 47.5
t19.5 47.5t47.5 19.5v1zM398 691q28 -1 47.5 -20.5t19.5 -47.5t-19.5 -47.5t-47.5 -19.5t-47.5 19.5t-19.5 47.5t19.5 47.5t47.5 19.5v1z" />
    <glyph glyph-name="Abreve" unicode="&#x102;" 
 />
    <glyph glyph-name="abreve" unicode="&#x103;" 
 />
    <glyph glyph-name="Aogonek" unicode="&#x104;" 
 />
    <glyph glyph-name="aogonek" unicode="&#x105;" 
 />
    <glyph glyph-name="Cacute" unicode="&#x106;" 
 />
    <glyph glyph-name="cacute" unicode="&#x107;" 
 />
    <glyph glyph-name="Ccaron" unicode="&#x10c;" 
 />
    <glyph glyph-name="ccaron" unicode="&#x10d;" 
 />
    <glyph glyph-name="Dcaron" unicode="&#x10e;" 
 />
    <glyph glyph-name="dcaron" unicode="&#x10f;" 
 />
    <glyph glyph-name="Dcroat" unicode="&#x110;" 
 />
    <glyph glyph-name="dcroat" unicode="&#x111;" 
 />
    <glyph glyph-name="Eogonek" unicode="&#x118;" 
 />
    <glyph glyph-name="eogonek" unicode="&#x119;" 
 />
    <glyph glyph-name="Ecaron" unicode="&#x11a;" 
 />
    <glyph glyph-name="ecaron" unicode="&#x11b;" 
 />
    <glyph glyph-name="Gbreve" unicode="&#x11e;" 
 />
    <glyph glyph-name="gbreve" unicode="&#x11f;" 
 />
    <glyph glyph-name="Idotaccent" unicode="&#x130;" 
 />
    <glyph glyph-name="thorn" unicode="&#x131;" horiz-adv-x="333" 
d="M105 100v219q0 42 -4 55t-22 14l-45 4v36q3 -1 6 -0.5t7 1.5q25 3 50 7t50 12l70 23l10 -6v-365q0 -19 1 -29.5t3 -18.5q2 -7 9 -11t23 -6l35 -1v-37h-7.5h-6.5q-7 1 -14.5 1h-14.5q-22 1 -44.5 1.5t-47.5 0.5q-22 0 -43.5 -0.5t-42.5 -1.5q-11 0 -21.5 -0.5t-21.5 -0.5
v37l35 2q16 1 23 5t9 11q2 8 3 18.5t1 28.5v1z" />
    <glyph glyph-name="Lacute" unicode="&#x139;" 
 />
    <glyph glyph-name="lacute" unicode="&#x13a;" 
 />
    <glyph glyph-name="Lcaron" unicode="&#x13d;" 
 />
    <glyph glyph-name="lcaron" unicode="&#x13e;" 
 />
    <glyph glyph-name="Ldot" unicode="&#x13f;" 
 />
    <glyph glyph-name="ldot" unicode="&#x140;" 
 />
    <glyph glyph-name="glyph225" unicode="&#x141;" horiz-adv-x="611" 
d="M265 543v-135l115 64l14 -40l-129 -72v-302q32 -2 64 -3t64 -1q10 0 21 0.5t22 1.5q25 2 47 5.5t29 7.5q1 0 2 0.5t1 1.5l23 103h39l-11 -166l-5 -8q-25 -2 -58.5 -3t-68.5 -1h-16.5h-16.5h-46t-40 1q-10 0 -20.5 0.5t-20.5 0.5q-20 1 -40.5 1.5t-41.5 0.5t-41.5 -0.5
t-40.5 -1.5q-10 0 -19.5 -0.5t-18.5 -0.5v23l32 18q12 6 16 19.5t4 36.5v188l-94 -52l-14 40l108 60v213q0 31 -1 51t-6 29q-3 6 -12 9.5t-29 4.5l-37 4v40q10 -1 21.5 -1.5t23.5 -0.5q25 -1 53 -1.5t58 -0.5t57.5 0.5t52.5 1.5q12 0 23.5 0.5t21.5 0.5v-39l-37 -3
q-19 -2 -28.5 -5.5t-12.5 -9.5q-4 -9 -5.5 -29t-1.5 -52v1z" />
    <glyph glyph-name="glyph226" unicode="&#x142;" horiz-adv-x="333" 
d="M225 714v-268l95 62l14 -34l-109 -71v-303q0 -19 1 -29.5t3 -18.5q2 -7 9 -11t23 -6l35 -1v-37h-7.5h-6.5q-7 1 -14.5 1h-14.5q-22 1 -44.5 1.5t-47.5 0.5q-22 0 -43.5 -0.5t-42.5 -1.5q-11 0 -21.5 -0.5t-21.5 -0.5v37l35 2q16 1 23 5t9 11q2 8 3 18.5t1 28.5v225
l-93 -60l-14 34l107 69v201q0 42 -4 55t-22 14l-53 4v36q35 3 64 7.5t57 12.5l72 23l8 -6v0z" />
    <glyph glyph-name="Nacute" unicode="&#x143;" 
 />
    <glyph glyph-name="nacute" unicode="&#x144;" 
 />
    <glyph glyph-name="Ncaron" unicode="&#x147;" 
 />
    <glyph glyph-name="ncaron" unicode="&#x148;" 
 />
    <glyph glyph-name="Ohungarumlaut" unicode="&#x150;" 
 />
    <glyph glyph-name="ohungarumlaut" unicode="&#x151;" 
 />
    <glyph glyph-name="fi" unicode="&#x152;" horiz-adv-x="1000" 
d="M43 344q0 181 98.5 265.5t273.5 84.5q20 0 40.5 -2t40.5 -5q7 -1 14 -1.5t14 -1.5q5 0 9 -0.5t9 -1.5q17 -2 32.5 -3.5t28.5 -1.5q47 0 86 0.5t72 1.5q16 0 31.5 0.5t29.5 0.5h15t14 1h13.5h13.5h12t11 -1h19t18 -1q8 0 15.5 -0.5t14.5 -1.5l6 -6l-14 -142h-36l-8 75
q-1 8 -25.5 12t-53.5 5q-9 1 -18.5 1h-17.5q-32 0 -64 -0.5t-64 -2.5v-239q17 -2 34 -2.5t33 -0.5l66 1q26 -1 41 2.5t16 17.5l6 58h40q0 -10 -0.5 -19t-0.5 -18q0 -4 -0.5 -8.5t-0.5 -8.5q0 -14 -0.5 -27t-0.5 -27q0 -18 0.5 -36t1.5 -36q0 -9 0.5 -18t0.5 -18l-40 1l-6 50
q-2 20 -16.5 28t-40.5 8l-66 1q-16 -1 -33 -1.5t-34 -2.5v-266q32 -2 64 -3t64 -1q10 0 21 0.5t22 1.5q25 2 47 5.5t29 7.5q1 0 2 0.5t1 1.5l23 95h39l-11 -158l-5 -8q-25 -2 -58.5 -3t-68.5 -1h-16.5h-16.5h-46t-40 1q-10 0 -20.5 0.5t-20.5 0.5q-20 1 -40.5 1.5t-41.5 0.5
q-25 0 -49.5 -1t-49.5 -5q-4 -1 -7.5 -1.5t-6.5 -0.5q-21 -3 -42.5 -6t-42.5 -3q-171 0 -265 95t-94 265v1zM532 75v519q-16 10 -31 18.5t-30 14.5q-15 5 -30 8t-31 3q-129 0 -173 -83t-44 -200q0 -15 0.5 -30t2.5 -30q9 -96 57 -176.5t159 -80.5q21 0 44.5 4t47.5 15l14 8
t14 9v1z" />
    <glyph glyph-name="fl" unicode="&#x153;" horiz-adv-x="833" 
d="M641 223h-131q0 -74 40.5 -122t118.5 -48q12 0 25 2.5t27 6.5q15 5 29 12t27 14l12 -14l-22 -48q-23 -13 -43 -21t-39 -13t-37.5 -7t-40.5 -2q-15 0 -31.5 2t-33.5 6q-26 7 -51 20t-43 35q-32 -33 -78.5 -48t-97.5 -15q-115 0 -169.5 67.5t-54.5 173.5q0 116 62.5 181
t182.5 65h8h8q40 -2 79.5 -13.5t73.5 -43.5q35 27 73 42t81 15q73 0 128 -44t55 -132v-51q-11 -4 -22.5 -6.5t-22.5 -4.5q-30 -6 -59.5 -8t-53.5 -2v1zM294 31q48 -1 67.5 33t24.5 74q2 15 2.5 29.5t0.5 27.5q0 19 -0.5 44.5t-4.5 52.5q-7 49 -28.5 89.5t-71.5 40.5
q-53 0 -73 -37t-25 -81q-1 -15 -1.5 -29t-0.5 -27q0 -18 1 -41t5 -48q7 -48 29.5 -88.5t74.5 -40.5v1zM590 415q-43 -1 -64.5 -35t-21.5 -105q7 0 14 -0.5t14 -0.5q14 -1 28 -1.5t28 -0.5t28 0.5t28 1.5q7 0 14 0.5t14 0.5q0 9 -0.5 19t-1.5 20q-3 37 -19.5 68.5t-60.5 31.5
v1z" />
    <glyph glyph-name="Racute" unicode="&#x154;" 
 />
    <glyph glyph-name="racute" unicode="&#x155;" 
 />
    <glyph glyph-name="Rcaron" unicode="&#x158;" 
 />
    <glyph glyph-name="rcaron" unicode="&#x159;" 
 />
    <glyph glyph-name="Sacute" unicode="&#x15a;" 
 />
    <glyph glyph-name="sacute" unicode="&#x15b;" 
 />
    <glyph glyph-name="Scedilla" unicode="&#x15e;" 
 />
    <glyph glyph-name="scedilla" unicode="&#x15f;" 
 />
    <glyph glyph-name="glyph227" unicode="&#x160;" horiz-adv-x="611" 
d="M72 202h40l7 -88q13 -24 40.5 -41.5t57.5 -26.5q16 -5 31 -7.5t28 -2.5q64 0 110.5 33.5t46.5 98.5q0 32 -20 56t-63 37l-140 43q-63 18 -104.5 61.5t-41.5 107.5q0 120 77.5 170.5t186.5 50.5q16 0 31.5 -1t31.5 -3q32 -3 63 -10.5t60 -19.5l5 -11q-6 -20 -9.5 -50.5
t-4.5 -62.5v-15.5v-14.5l-41 1l-6 82q-17 18 -42.5 31t-53.5 19q-9 2 -18.5 3t-18.5 1q-70 0 -103.5 -35.5t-33.5 -85.5q0 -34 25.5 -58.5t80.5 -38.5l114 -29q69 -19 110 -62t41 -111q0 -127 -89.5 -183.5t-203.5 -56.5h-10.5h-11.5q-48 2 -96 13t-91 32q9 44 12 87t3 86v1
zM351 734h-93l-121 175h55l113 -98l112 98h57l-123 -175v0z" />
    <glyph glyph-name="glyph228" unicode="&#x161;" horiz-adv-x="444" 
d="M362 326h-36l-10 58q-2 11 -19 20.5t-37 14.5q-7 1 -13.5 2t-12.5 1q-43 0 -68 -16.5t-25 -48.5q0 -24 13.5 -37t41.5 -19l82 -17q61 -14 94 -42t33 -90q0 -84 -62 -125t-137 -44h-5.5h-5.5q-39 0 -78 7t-78 20l7 142h39l5 -69q22 -29 52.5 -41t65.5 -12q34 0 60 19.5
t26 55.5q0 33 -17.5 45.5t-45.5 19.5l-86 22q-52 12 -79 43.5t-27 78.5q0 86 59 121t147 35q34 0 66 -4.5t59 -18.5l-8 -121v0zM268 518h-93l-121 175h55l113 -98l112 98h57l-123 -175v0z" />
    <glyph glyph-name="uni0162" unicode="&#x162;" 
 />
    <glyph glyph-name="uni0163" unicode="&#x163;" 
 />
    <glyph glyph-name="Tcaron" unicode="&#x164;" 
 />
    <glyph glyph-name="tcaron" unicode="&#x165;" 
 />
    <glyph glyph-name="Uring" unicode="&#x16e;" 
 />
    <glyph glyph-name="uring" unicode="&#x16f;" 
 />
    <glyph glyph-name="Uhungarumlaut" unicode="&#x170;" 
 />
    <glyph glyph-name="uhungarumlaut" unicode="&#x171;" 
 />
    <glyph glyph-name="Iacute" unicode="&#x178;" horiz-adv-x="667" 
d="M395 356l188 322h77v-19l-176 -261q-13 -20 -23.5 -40t-20.5 -41q-2 -5 -4.5 -10t-4.5 -10v-162q0 -32 1.5 -52.5t5.5 -29.5q3 -6 12.5 -9t28.5 -5l37 -2v-40q-10 0 -21.5 0.5t-23.5 0.5q-25 1 -52.5 1.5t-57.5 0.5t-58 -0.5t-53 -1.5q-12 0 -23.5 -0.5t-21.5 -0.5v40
l37 3q20 1 29 4t12 9q5 9 6 29.5t1 51.5v140q-12 27 -21.5 44.5t-17.5 31.5q-1 2 -2.5 4t-2.5 4l-101 164q-4 5 -8.5 11.5t-9.5 12.5q-3 5 -7 9.5t-7 9.5l-10 12t-10 11q-2 3 -4.5 5t-4.5 4q-15 14 -31 19t-38 5v38l159 36q41 -24 67 -60.5t47 -76.5l107 -202v0zM258 895
q28 -1 47.5 -20.5t19.5 -47.5t-19.5 -47.5t-47.5 -19.5t-47.5 19.5t-19.5 47.5t19.5 47.5t47.5 19.5v1zM473 895q28 -1 47.5 -20.5t19.5 -47.5t-19.5 -47.5t-47.5 -19.5t-47.5 19.5t-19.5 47.5t19.5 47.5t47.5 19.5v1z" />
    <glyph glyph-name="Zacute" unicode="&#x179;" 
 />
    <glyph glyph-name="zacute" unicode="&#x17a;" 
 />
    <glyph glyph-name="Zdotaccent" unicode="&#x17b;" 
 />
    <glyph glyph-name="zdotaccent" unicode="&#x17c;" 
 />
    <glyph glyph-name="Zcaron" unicode="&#x17d;" 
 />
    <glyph glyph-name="zcaron" unicode="&#x17e;" 
 />
    <glyph glyph-name="quotedblright" unicode="&#x192;" horiz-adv-x="500" 
d="M95 368l13 44h105q4 15 9 32.5t11 35.5q11 29 24 56.5t29 50.5q28 40 77 73t102 40q6 1 12.5 1.5t12.5 0.5l-7 -82h-10q-12 8 -24 13.5t-23 5.5q-31 0 -44.5 -20.5t-18.5 -49.5l-25 -157h114l-13 -44h-110l-52 -310q-13 -80 -45 -137.5t-68 -92.5q-17 -18 -34.5 -30
t-32.5 -18q-6 -3 -12 -5t-11 -4q-15 -5 -30 -8.5t-33 -4.5q1 4 1.5 8t1.5 9q2 16 3 33.5t2 37.5l14 8q5 -9 13 -14t17 -8q6 -2 11 -2.5t9 -0.5t8.5 1.5t9.5 3.5q11 6 20.5 19t12.5 33l73 482h-112v0z" />
    <glyph glyph-name="uni02BA" unicode="&#x2ba;" horiz-adv-x="333" 
d="M-56 506l128 148l7.5 7.5t6.5 7.5q11 10 22.5 15.5t29.5 5.5q19 0 31.5 -13t12.5 -31q0 -16 -4.5 -25t-14.5 -15l-165 -100h-54v0zM152 506l128 148l7.5 7.5t6.5 7.5q11 10 22.5 15.5t29.5 5.5q19 0 31.5 -13t12.5 -31q0 -16 -4.5 -25t-14.5 -15l-165 -100h-54v0z" />
    <glyph glyph-name="arrowright" unicode="&#x2c6;" horiz-adv-x="333" 
d="M306 661h43q-11 -48 -38.5 -87.5t-82.5 -39.5q-12 0 -26 3.5t-28 9.5q-6 3 -13 6l-14 6q-20 10 -39.5 17t-36.5 7t-28 -12t-16 -27q-1 -2 -1.5 -4.5t-1.5 -4.5l-40 1q1 9 5 23.5t11 30.5q12 26 37 48t65 22q21 0 40 -7.5t38 -16.5t37.5 -16.5t36.5 -7.5q21 0 30.5 10.5
t16.5 26.5q1 3 2.5 5.5t2.5 5.5v1z" />
    <glyph glyph-name="glyph224" unicode="&#x2c7;" horiz-adv-x="333" 
d="M212 510h-93l-121 175h55l113 -98l112 98h57l-123 -175v0z" />
    <glyph glyph-name="house" unicode="&#x2c9;" horiz-adv-x="333" 
d="M332 538h-331v71h331v-71v0z" />
    <glyph glyph-name="endash" unicode="&#x2d8;" horiz-adv-x="333" 
d="M15 669h44q7 -47 35.5 -67.5t73.5 -20.5q35 0 58 15.5t35 33.5q6 10 9 19.5t4 16.5v3h44q-2 -71 -39.5 -117.5t-111.5 -46.5t-113.5 46t-38.5 117v1z" />
    <glyph glyph-name="sfthyphen" unicode="&#x2d9;" horiz-adv-x="333" 
d="M167 671q28 -1 47.5 -20.5t19.5 -47.5t-19.5 -47.5t-47.5 -19.5t-47.5 19.5t-19.5 47.5t19.5 47.5t47.5 19.5v1z" />
    <glyph glyph-name="filledbox" unicode="&#x2da;" horiz-adv-x="333" 
d="M167 700q41 -1 70.5 -30.5t29.5 -70.5t-29.5 -70.5t-70.5 -29.5t-70.5 29.5t-29.5 70.5t29.5 70.5t70.5 29.5v1zM167 650q-21 -1 -35.5 -15.5t-14.5 -35.5t14.5 -35.5t35.5 -14.5t35.5 14.5t14.5 35.5t-14.5 35.5t-35.5 14.5v1z" />
    <glyph glyph-name="glyph223" unicode="&#x2db;" horiz-adv-x="333" 
d="M268 -189l6 -26q-13 -11 -33 -18t-42 -10q-9 -2 -18 -2.5t-17 -0.5t-18.5 1t-20.5 4q-24 8 -44.5 29t-20.5 66q0 58 29 87.5t65 41.5h38q-12 -12 -21.5 -24.5t-16.5 -25.5q-9 -16 -13.5 -32.5t-4.5 -30.5q0 -30 15.5 -52t52.5 -22q9 0 20.5 2t23.5 6q5 2 10 3.5t10 3.5v0
z" />
    <glyph glyph-name="onehalf" unicode="&#x2dc;" horiz-adv-x="333" 
d="M119 681h93l123 -175h-57l-112 98l-113 -98h-55l121 175v0z" />
    <glyph glyph-name="Gamma" unicode="&#x393;" 
 />
    <glyph glyph-name="Theta" unicode="&#x398;" 
 />
    <glyph glyph-name="exclamdown" unicode="&#x3a3;" 
 />
    <glyph glyph-name="Phi" unicode="&#x3a6;" 
 />
    <glyph glyph-name="Atilde" unicode="&#x3a9;" 
 />
    <glyph glyph-name="alpha" unicode="&#x3b1;" 
 />
    <glyph glyph-name="delta" unicode="&#x3b4;" 
 />
    <glyph glyph-name="epsilon" unicode="&#x3b5;" 
 />
    <glyph glyph-name="guillemotleft" unicode="&#x3c0;" 
 />
    <glyph glyph-name="sigma" unicode="&#x3c3;" 
 />
    <glyph glyph-name="tau" unicode="&#x3c4;" 
 />
    <glyph glyph-name="phi" unicode="&#x3c6;" 
 />
    <glyph glyph-name="glyph259" unicode="&#x2013;" horiz-adv-x="500" 
d="M500 208h-500v83h500v-83v0z" />
    <glyph glyph-name="periodcentered" unicode="&#x2014;" horiz-adv-x="1000" 
d="M1000 208h-1000v83h1000v-83v0z" />
    <glyph glyph-name="underscoredbl" unicode="&#x2017;" 
 />
    <glyph glyph-name="Acircumflex" unicode="&#x2018;" horiz-adv-x="278" 
d="M169 668l66 27l14 -16q-5 -13 -11 -27t-12 -29q-7 -21 -14.5 -43t-14.5 -45q-7 -26 -13 -51t-9 -47q-10 -1 -20 -2.5t-21 -3.5q-25 -5 -48.5 -12t-42.5 -15l-14 14q12 27 32.5 65.5t43.5 79.5q7 11 13.5 22t12.5 22q10 16 19.5 31t18.5 29v1z" />
    <glyph glyph-name="Ecircumflex" unicode="&#x2019;" horiz-adv-x="278" 
d="M109 432l-66 -27l-14 16q5 11 11 25t12 29q7 21 14.5 43t14.5 45q7 26 13 51t9 47q10 1 20 2.5t21 3.5q25 5 48.5 12t42.5 15l14 -12q-12 -29 -32.5 -67.5t-43.5 -79.5q-7 -11 -13.5 -22t-12.5 -22q-10 -16 -19.5 -31t-18.5 -29v1z" />
    <glyph glyph-name="Ugrave" unicode="&#x201a;" 
 />
    <glyph glyph-name="quotedblbase" unicode="&#x201c;" horiz-adv-x="500" 
d="M174 668l66 27l14 -16q-5 -13 -11 -27t-12 -29q-7 -21 -14.5 -43t-14.5 -45q-7 -26 -13 -51t-9 -47q-10 -1 -20 -2.5t-21 -3.5q-25 -5 -48.5 -12t-42.5 -15l-14 14q12 27 32.5 65.5t43.5 79.5q7 11 13.5 22t12.5 22q10 16 19.5 31t18.5 29v1zM386 668l66 27l14 -16
q-5 -13 -11 -27t-12 -29q-7 -21 -14.5 -43t-14.5 -45q-7 -26 -13 -51t-9 -47q-10 -1 -20 -2.5t-21 -3.5q-25 -5 -48.5 -12t-42.5 -15l-14 14q12 27 32.5 65.5t43.5 79.5q7 11 13.5 22t12.5 22q10 16 19.5 31t18.5 29v1z" />
    <glyph glyph-name="perthousand" unicode="&#x201d;" horiz-adv-x="500" 
d="M114 432l-66 -27l-14 16q5 11 11 25t12 29q7 21 14.5 43t14.5 45q7 26 13 51t9 47q10 1 20 2.5t21 3.5q25 5 48.5 12t42.5 15l14 -12q-12 -29 -32.5 -67.5t-43.5 -79.5q-7 -11 -13.5 -22t-12.5 -22q-10 -16 -19.5 -31t-18.5 -29v1zM326 432l-66 -27l-14 16q5 11 11 25
t12 29q7 21 14.5 43t14.5 45q7 26 13 51t9 47q10 1 20 2.5t21 3.5q25 5 48.5 12t42.5 15l14 -12q-12 -29 -32.5 -67.5t-43.5 -79.5q-7 -11 -13.5 -22t-12.5 -22q-10 -16 -19.5 -31t-18.5 -29v1z" />
    <glyph glyph-name="dotlessi" unicode="&#x201e;" horiz-adv-x="500" 
d="M114 -133l-66 -27l-14 16q5 12 11 26t12 29q7 21 14.5 43t14.5 45q7 25 13 50t9 47q10 1 20 2.5t21 3.5q25 5 48.5 12t42.5 15l14 -12q-12 -29 -32.5 -67.5t-43.5 -78.5q-7 -11 -13.5 -22t-12.5 -22q-10 -16 -19.5 -31t-18.5 -29v0zM326 -133l-66 -27l-14 16q5 12 11 26
t12 29q7 21 14.5 43t14.5 45q7 25 13 50t9 47q10 1 20 2.5t21 3.5q25 5 48.5 12t42.5 15l14 -12q-12 -29 -32.5 -67.5t-43.5 -78.5q-7 -11 -13.5 -22t-12.5 -22q-10 -16 -19.5 -31t-18.5 -29v0z" />
    <glyph glyph-name="dagger" unicode="&#x2020;" horiz-adv-x="500" 
d="M196 462l-16 213l6 7q6 -1 11 -1.5t11 -0.5q2 0 5 -0.5t6 -0.5q8 0 16 -0.5t16 -0.5t16 0.5t17 0.5q2 0 5 0.5t5 0.5q6 0 11.5 0.5t10.5 0.5l5 -6l-16 -213l164 8l3 -6q0 -5 -0.5 -8.5t-0.5 -7.5q0 -2 -0.5 -4t-0.5 -4q0 -6 -0.5 -11.5t-0.5 -11.5t0.5 -12t0.5 -11
q0 -2 0.5 -4t0.5 -4q0 -4 0.5 -8t0.5 -8l-3 -5l-164 8l18 -374l-5 -5q-5 0 -11 0.5t-11 0.5q-3 0 -6 0.5t-5 0.5q-9 0 -17.5 0.5t-16.5 0.5t-16.5 -0.5t-16.5 -0.5q-3 0 -6 -0.5t-6 -0.5q-5 0 -10.5 -0.5t-11.5 -0.5l-6 5l18 374l-164 -8l-3 6q0 3 0.5 7t0.5 8q0 2 0.5 4
t0.5 4q0 5 0.5 11t0.5 12t-0.5 11.5t-0.5 11.5q0 2 -0.5 4t-0.5 4q0 4 -0.5 7.5t-0.5 7.5l3 7l164 -8v0z" />
    <glyph glyph-name="Uacute" unicode="&#x2021;" horiz-adv-x="500" 
d="M189 220l14 183l-164 -9l-7 5q0 3 0.5 6.5t0.5 7.5q1 8 1.5 15.5t0.5 14.5q0 8 -0.5 15.5t-1.5 14.5q0 4 -0.5 7.5t-0.5 7.5l7 6l164 -10l-16 193l8 5q5 -1 9.5 -1.5t9.5 -0.5q10 -1 19.5 -1.5t18.5 -0.5q8 0 16.5 0.5t17.5 1.5q5 0 9.5 0.5t9.5 0.5l8 -4l-16 -193
l164 10l7 -5q0 -5 -0.5 -8.5t-0.5 -7.5q-1 -7 -1.5 -14.5t-0.5 -15.5q0 -7 0.5 -14.5t1.5 -15.5q0 -4 0.5 -7.5t0.5 -7.5l-7 -4l-164 9l14 -183l-14 -189l164 10l7 -5q0 -5 -0.5 -8.5t-0.5 -7.5q-1 -7 -1.5 -14t-0.5 -15t0.5 -15.5t1.5 -14.5q0 -4 0.5 -7.5t0.5 -7.5l-7 -5
l-164 9l16 -190l-8 -5q-4 0 -9 0.5t-9 0.5q-3 0 -5 0.5t-4 0.5q-7 0 -14 0.5t-14 0.5t-14 -0.5t-13 -0.5q-3 0 -5 -0.5t-5 -0.5q-4 0 -8.5 -0.5t-9.5 -0.5l-8 5l16 190l-164 -9l-7 5q0 4 0.5 7.5t0.5 7.5q1 7 1.5 14.5t0.5 15.5q0 7 -0.5 14.5t-1.5 14.5q0 4 -0.5 7.5
t-0.5 7.5l7 6l164 -10l-14 189v0z" />
    <glyph glyph-name="glyph262" unicode="&#x2022;" horiz-adv-x="606" 
d="M131 344q0 70 51 120.5t121 50.5q71 0 121.5 -50.5t50.5 -121.5q0 -70 -50.5 -121t-121.5 -51q-70 0 -121 51t-51 121v1z" />
    <glyph glyph-name="fraction" unicode="&#x2026;" horiz-adv-x="1000" 
d="M167 144q31 -1 54.5 -25t23.5 -56q0 -28 -23 -51.5t-55 -23.5q-31 0 -54.5 22t-23.5 53q0 32 23.5 56t54.5 24v1zM500 144q31 -1 54.5 -25t23.5 -56q0 -28 -23 -51.5t-55 -23.5q-31 0 -54.5 22t-23.5 53q0 32 23.5 56t54.5 24v1zM833 144q31 -1 54.5 -25t23.5 -56
q0 -28 -23 -51.5t-55 -23.5q-31 0 -54.5 22t-23.5 53q0 32 23.5 56t54.5 24v1z" />
    <glyph glyph-name="circumflex" unicode="&#x2030;" horiz-adv-x="1000" 
d="M170 -9h-51l403 733h51l-403 -733v0zM506 323q65 -1 106 -44t41 -125q0 -76 -45 -115t-102 -39t-102 39t-45 115q0 82 41.5 125t105.5 43v1zM506 294q-28 -1 -41 -30t-13 -108q0 -69 14 -95.5t31 -31.5q2 0 4.5 -0.5t4.5 -0.5t4.5 0.5t4.5 0.5q17 5 31 31.5t14 95.5
q0 79 -12.5 108t-41.5 29v1zM835 323q65 -1 106 -44t41 -125q0 -76 -45 -115t-102 -39t-102 39t-45 115q0 82 41.5 125t105.5 43v1zM835 294q-28 -1 -41 -30t-13 -108q0 -69 14 -95.5t31 -31.5q2 0 4.5 -0.5t4.5 -0.5t4.5 0.5t4.5 0.5q17 5 31 31.5t14 95.5q0 79 -12.5 108
t-41.5 29v1zM180 700q65 -1 106 -44t41 -125q0 -76 -45 -115.5t-102 -39.5t-102 39.5t-45 115.5q0 82 41.5 125t105.5 43v1zM180 671q-28 -1 -41 -30t-13 -108q0 -69 14 -95.5t31 -31.5q2 0 4.5 -0.5t4.5 -0.5t4.5 0.5t4.5 0.5q17 5 31 31.5t14 95.5q0 79 -12.5 108
t-41.5 29v1z" />
    <glyph glyph-name="Igrave" unicode="&#x2039;" horiz-adv-x="389" 
d="M280 438l27 -22l-110 -173l110 -179l-27 -20q-19 18 -41 40l-45 45q-8 7 -15 14t-15 14q-21 20 -42 39t-40 34v26q22 18 49.5 42.5t55.5 50.5q6 5 12 10.5t12 11.5q19 17 36.5 33.5t32.5 32.5v1z" />
    <glyph glyph-name="Oacute" unicode="&#x203a;" horiz-adv-x="389" 
d="M82 416l27 22q15 -17 32.5 -33.5t36.5 -33.5q6 -6 12 -11.5t12 -10.5q28 -26 55.5 -50.5t49.5 -43.5v-24q-19 -16 -40 -35t-42 -39q-8 -7 -15 -14t-15 -14l-45 -45l-41 -41l-27 21l110 179l-110 173v0z" />
    <glyph glyph-name="exclamdbl" unicode="&#x203c;" 
 />
    <glyph glyph-name="uni207F" unicode="&#x207f;" 
 />
    <glyph glyph-name="franc" unicode="&#x20a3;" 
 />
    <glyph glyph-name="peseta" unicode="&#x20a7;" 
 />
    <glyph glyph-name="trademark" unicode="&#x2122;" horiz-adv-x="998" 
d="M318 274h-197v26q37 -1 50.5 11.5t13.5 32.5v302h-44q-40 -1 -56 -15.5t-17 -55.5l-30 1v102h367v-102h-30q-1 40 -16.5 54.5t-56.5 14.5l-44 1v-310q0 -16 11.5 -26.5t48.5 -10.5v-25v0zM912 618v-269q0 -32 7.5 -40t41.5 -10v-25h-173v26q34 0 42.5 7.5t8.5 39.5v279
h-2l-143 -352h-10l-149 352h-2v-294q0 -24 12 -28t35 -5h1.5h1.5v-25h-131v26q28 0 39 4.5t11 28.5v285v7.5v6.5q0 12 -4.5 16.5t-22.5 4.5l-15 1v24h132l118 -279l118 279h133v-24h-19q-23 -1 -26.5 -8.5t-3.5 -26.5v-0.5v-1.5v1z" />
    <glyph glyph-name="arrowleft" unicode="&#x2190;" 
 />
    <glyph glyph-name="arrowup" unicode="&#x2191;" 
 />
    <glyph glyph-name="glyph257" unicode="&#x2192;" horiz-adv-x="500" 
 />
    <glyph glyph-name="arrowdown" unicode="&#x2193;" 
 />
    <glyph glyph-name="arrowboth" unicode="&#x2194;" 
 />
    <glyph glyph-name="arrowupdn" unicode="&#x2195;" 
 />
    <glyph glyph-name="arrowupdnbse" unicode="&#x21a8;" 
 />
    <glyph glyph-name="questiondown" unicode="&#x2202;" 
 />
    <glyph glyph-name="quoteright" unicode="&#x2206;" 
 />
    <glyph glyph-name="florin" unicode="&#x220f;" 
 />
    <glyph glyph-name="minus" unicode="&#x2212;" 
 />
    <glyph glyph-name="Icircumflex" unicode="&#x2215;" horiz-adv-x="167" 
d="M-83 0h-69l403 660h69l-403 -660v0z" />
    <glyph glyph-name="Ucircumflex" unicode="&#x2219;" 
d="M125 335q31 -1 54.5 -25t23.5 -56q0 -28 -23 -52t-55 -24q-31 0 -54.5 22.5t-23.5 53.5q0 32 23.5 56t54.5 24v1z" />
    <glyph glyph-name="quotedblleft" unicode="&#x221a;" 
 />
    <glyph glyph-name="yen" unicode="&#x221e;" 
 />
    <glyph glyph-name="orthogonal" unicode="&#x221f;" 
 />
    <glyph glyph-name="intersection" unicode="&#x2229;" 
 />
    <glyph glyph-name="guillemotright" unicode="&#x222b;" 
 />
    <glyph glyph-name="quoteleft" unicode="&#x2248;" 
 />
    <glyph glyph-name="AE" unicode="&#x2260;" 
 />
    <glyph glyph-name="equivalence" unicode="&#x2261;" 
 />
    <glyph glyph-name="ordfeminine" unicode="&#x2264;" 
 />
    <glyph glyph-name="ordmasculine" unicode="&#x2265;" 
 />
    <glyph glyph-name="glyph258" unicode="&#x2302;" 
 />
    <glyph glyph-name="revlogicalnot" unicode="&#x2310;" 
 />
    <glyph glyph-name="integraltp" unicode="&#x2320;" 
 />
    <glyph glyph-name="integralbt" unicode="&#x2321;" 
 />
    <glyph glyph-name="SF100000" unicode="&#x2500;" 
 />
    <glyph glyph-name="SF110000" unicode="&#x2502;" 
 />
    <glyph glyph-name="SF010000" unicode="&#x250c;" 
 />
    <glyph glyph-name="SF030000" unicode="&#x2510;" 
 />
    <glyph glyph-name="SF020000" unicode="&#x2514;" 
 />
    <glyph glyph-name="SF040000" unicode="&#x2518;" 
 />
    <glyph glyph-name="SF080000" unicode="&#x251c;" 
 />
    <glyph glyph-name="SF090000" unicode="&#x2524;" 
 />
    <glyph glyph-name="SF060000" unicode="&#x252c;" 
 />
    <glyph glyph-name="SF070000" unicode="&#x2534;" 
 />
    <glyph glyph-name="SF050000" unicode="&#x253c;" 
 />
    <glyph glyph-name="SF430000" unicode="&#x2550;" 
 />
    <glyph glyph-name="SF240000" unicode="&#x2551;" 
 />
    <glyph glyph-name="SF510000" unicode="&#x2552;" 
 />
    <glyph glyph-name="SF520000" unicode="&#x2553;" 
 />
    <glyph glyph-name="SF390000" unicode="&#x2554;" 
 />
    <glyph glyph-name="SF220000" unicode="&#x2555;" 
 />
    <glyph glyph-name="SF210000" unicode="&#x2556;" 
 />
    <glyph glyph-name="SF250000" unicode="&#x2557;" 
 />
    <glyph glyph-name="SF500000" unicode="&#x2558;" 
 />
    <glyph glyph-name="SF490000" unicode="&#x2559;" 
 />
    <glyph glyph-name="SF380000" unicode="&#x255a;" 
 />
    <glyph glyph-name="SF280000" unicode="&#x255b;" 
 />
    <glyph glyph-name="SF270000" unicode="&#x255c;" 
 />
    <glyph glyph-name="SF260000" unicode="&#x255d;" 
 />
    <glyph glyph-name="SF360000" unicode="&#x255e;" 
 />
    <glyph glyph-name="SF370000" unicode="&#x255f;" 
 />
    <glyph glyph-name="SF420000" unicode="&#x2560;" 
 />
    <glyph glyph-name="SF190000" unicode="&#x2561;" 
 />
    <glyph glyph-name="SF200000" unicode="&#x2562;" 
 />
    <glyph glyph-name="SF230000" unicode="&#x2563;" 
 />
    <glyph glyph-name="SF470000" unicode="&#x2564;" 
 />
    <glyph glyph-name="SF480000" unicode="&#x2565;" 
 />
    <glyph glyph-name="SF410000" unicode="&#x2566;" 
 />
    <glyph glyph-name="SF450000" unicode="&#x2567;" 
 />
    <glyph glyph-name="SF460000" unicode="&#x2568;" 
 />
    <glyph glyph-name="SF400000" unicode="&#x2569;" 
 />
    <glyph glyph-name="SF540000" unicode="&#x256a;" 
 />
    <glyph glyph-name="SF530000" unicode="&#x256b;" 
 />
    <glyph glyph-name="SF440000" unicode="&#x256c;" 
 />
    <glyph glyph-name="upblock" unicode="&#x2580;" 
 />
    <glyph glyph-name="dnblock" unicode="&#x2584;" 
 />
    <glyph glyph-name="block" unicode="&#x2588;" 
 />
    <glyph glyph-name="lfblock" unicode="&#x258c;" 
 />
    <glyph glyph-name="rtblock" unicode="&#x2590;" 
 />
    <glyph glyph-name="ltshade" unicode="&#x2591;" 
 />
    <glyph glyph-name="shade" unicode="&#x2592;" 
 />
    <glyph glyph-name="dkshade" unicode="&#x2593;" 
 />
    <glyph glyph-name="glyph261" unicode="&#x25a0;" horiz-adv-x="500" 
 />
    <glyph glyph-name="filledrect" unicode="&#x25ac;" 
 />
    <glyph glyph-name="triagup" unicode="&#x25b2;" 
 />
    <glyph glyph-name="triagrt" unicode="&#x25ba;" 
 />
    <glyph glyph-name="triagdn" unicode="&#x25bc;" 
 />
    <glyph glyph-name="triaglf" unicode="&#x25c4;" 
 />
    <glyph glyph-name="Edieresis" unicode="&#x25ca;" 
 />
    <glyph glyph-name="circle" unicode="&#x25cb;" 
 />
    <glyph glyph-name="invbullet" unicode="&#x25d8;" 
 />
    <glyph glyph-name="invcircle" unicode="&#x25d9;" 
 />
    <glyph glyph-name="smileface" unicode="&#x263a;" 
 />
    <glyph glyph-name="invsmileface" unicode="&#x263b;" 
 />
    <glyph glyph-name="sun" unicode="&#x263c;" 
 />
    <glyph glyph-name="female" unicode="&#x2640;" 
 />
    <glyph glyph-name="male" unicode="&#x2642;" 
 />
    <glyph glyph-name="spade" unicode="&#x2660;" 
 />
    <glyph glyph-name="club" unicode="&#x2663;" 
 />
    <glyph glyph-name="heart" unicode="&#x2665;" 
 />
    <glyph glyph-name="diamond" unicode="&#x2666;" 
 />
    <glyph glyph-name="musicalnote" unicode="&#x266a;" 
 />
    <glyph glyph-name="musicalnotedbl" unicode="&#x266b;" 
 />
    <glyph glyph-name="Scaron" unicode="&#xf000;" 
 />
    <glyph glyph-name="Ocircumflex" unicode="&#xf001;" horiz-adv-x="611" 
d="M524 470v-370q0 -19 1 -29.5t3 -18.5q2 -7 9 -11t23 -6l35 -1v-37h-7.5h-6.5q-7 1 -14.5 1h-14.5q-22 1 -44.5 1.5t-47.5 0.5q-22 0 -43.5 -0.5t-42.5 -1.5q-11 0 -21.5 -0.5t-21.5 -0.5v37l35 2q16 1 23 5t9 11q2 8 3 18.5t1 28.5v227q0 35 -9 49.5t-29 14.5l-31 1
l-7 -19h-111v-272q0 -19 1 -29.5t3 -18.5q2 -7 11 -11.5t25 -5.5l35 -1v-37q-12 0 -23.5 0.5t-22.5 0.5h-3.5h-3.5q-21 1 -42 1.5t-44 0.5h-8.5h-9.5q-17 0 -35 -0.5t-37 -1.5q-12 0 -24.5 -0.5t-26.5 -0.5v37l41 2q16 0 26 4.5t12 11.5q2 8 3 18.5t1 28.5v273l-79 -5v24
q21 9 41 20t38 24v44q0 41 3.5 63t18.5 41q6 7 14 15t19 17l74 63q30 24 48 31.5t34 9.5h6h6q5 0 10 -0.5t11 -0.5l10 -2t10 -3v-96l-16 -7q-9 5 -20 10.5t-22 8.5q-5 2 -10.5 3t-10.5 1q-46 0 -54.5 -26.5t-8.5 -65.5v-107h111q32 -1 61 2.5t57 11.5l72 23l8 -1v0zM472 706
q32 -1 53.5 -22.5t21.5 -54.5q0 -31 -22.5 -52.5t-52.5 -21.5t-52.5 21.5t-22.5 52.5q0 33 22 54.5t53 21.5v1z" />
    <glyph glyph-name="Ograve" unicode="&#xf002;" horiz-adv-x="611" 
d="M400 100v468q0 42 -4 54.5t-22 14.5l-27 4v-33l-15 -4q-1 0 -2 1.5t-2 2.5q-7 7 -17.5 14t-22.5 10q-3 0 -5.5 0.5t-5.5 0.5q-35 0 -45 -26.5t-10 -65.5v-107q17 -1 37 -0.5t40 1.5q11 0 22 0.5t22 1.5l4 -7l-11 -58h-114v-272q0 -19 1 -29.5t3 -18.5q2 -7 15 -11t28 -6
h1.5h1.5l25 -1v-37q-12 0 -23.5 0.5t-22.5 0.5h-3.5h-3.5q-21 1 -42 1.5t-44 0.5h-8.5h-9.5q-17 0 -35 -0.5t-37 -1.5q-12 0 -24.5 -0.5t-26.5 -0.5v37l41 2q16 0 26 4.5t12 11.5q2 8 3 18.5t1 28.5v273l-79 -5v24q21 9 41 20t38 24v44q0 41 3.5 63t18.5 41q6 7 14 15t19 17
l74 63q35 28 54 34.5t34 6.5q7 0 12 -0.5t10 -1.5q2 0 4 -0.5t4 -0.5v-36q3 -1 6.5 -0.5t6.5 1.5q24 3 47 7t46 11l61 21l8 -6v-614q0 -19 1 -29.5t3 -18.5q2 -7 9 -11t23 -6l35 -1v-37h-7.5h-6.5q-7 1 -14.5 1h-14.5q-22 1 -44.5 1.5t-47.5 0.5q-22 0 -43.5 -0.5
t-42.5 -1.5q-11 0 -21.5 -0.5t-21.5 -0.5v37l35 2q16 1 23 5t9 11q2 8 3 18.5t1 28.5v1z" />
    <glyph glyph-name="degree" horiz-adv-x="400" 
d="M200 660q62 -1 106 -45t44 -106t-44 -106t-106 -44t-106 44t-44 106q-1 62 43.5 106t106.5 44v1zM198 599q-34 -1 -60.5 -26.5t-26.5 -61.5v-0.5v-0.5v-0.5v-0.5q0 -37 26 -63t63 -26t63 26t26 63t-26.5 63t-64.5 26v1z" />
    <glyph glyph-name="bullet" horiz-adv-x="606" 
d="M131 344q0 70 51 120.5t121 50.5q71 0 121.5 -50.5t50.5 -121.5q0 -70 -50.5 -121t-121.5 -51q-70 0 -121 51t-51 121v1z" />
    <glyph glyph-name="daggerdbl" horiz-adv-x="500" 
d="M500 208h-500v83h500v-83v0z" />
    </font>
</defs>
</svg>
