<?xml version="1.0" standalone="no"?>
<!DOCTYPE svg PUBLIC "-//W3C//DTD SVG 1.1//EN" "http://www.w3.org/Graphics/SVG/1.1/DTD/svg11.dtd" >
<svg>
<metadata>
Created by FontForge 20090622 at Thu Feb 23 22:12:32 2017
 By deploy user
Copyright 1981-1983, 1989,1993, 1998 Heidelberger Druckmaschinen AG. All rights reserved. The  digitally encoded machine readable outline data for producing the Typefaces licensed are the property of Heidelberger Druckmaschinen AG and/or its subsidiaries, represented by Linotype Library GmbH, Dupont Strasse 1, 61352 Bad Homburg Germany. Portions &#194;&#169; 1996-1998 Microsoft Corporation. All Rights Reserved.
</metadata>
<defs>
<font id="PalatinoLinotype-Bold" horiz-adv-x="1024" >
  <font-face 
    font-family="Palatino Linotype"
    font-weight="700"
    font-stretch="normal"
    units-per-em="2048"
    panose-1="2 4 7 2 6 3 5 10 2 4"
    ascent="1638"
    descent="-410"
    x-height="944"
    cap-height="1468"
    bbox="-356 -613 2960 2150"
    underline-thickness="120"
    underline-position="-148"
    unicode-range="U+0020-U+FFFC"
  />
<missing-glyph horiz-adv-x="1540" 
d="M1490 794q0 -80 -46 -141q-56 -73 -152 -73q-50 0 -98 22q48 22 48 74q0 66 -70 66q-126 0 -167 -167h-118q24 209 142 324q101 99 231 99q117 0 179 -67q51 -56 51 -137zM980 1206q0 -37 -81 -249.5t-81 -381.5h-96q0 169 -81 381.5t-81 249.5q0 67 82 136l128 106
l128 -106q82 -69 82 -136zM1095 478q0 -45 -39 -45h-572q-39 0 -39 45t39 45h572q39 0 39 -45zM1170 0q-95 15 -176 121q-84 110 -106 260h112q31 -223 170 -381zM653 575h-118q-41 167 -167 167q-70 0 -70 -66q0 -52 48 -74q-48 -22 -98 -22q-96 0 -151 73q-47 61 -47 141
q0 81 51 137q62 67 179 67q130 0 231 -99q118 -115 142 -324zM839 214q0 -67 -21.5 -161t-47.5 -146q-26 52 -47.5 146t-21.5 161q0 70 20 167h98q20 -97 20 -167zM652 381q-22 -150 -106 -260q-81 -106 -176 -121q139 158 170 381h112z" />
    <glyph glyph-name="uniFB01" unicode="fi" horiz-adv-x="1258" 
d="M1118 1308q0 -64 -45 -109.5t-108 -45.5q-64 0 -109 45.5t-45 109.5q0 66 45.5 111t108.5 45q62 0 107.5 -45t45.5 -111zM1226 3l-10 -10q-95 7 -264 7t-263 -7l-10 10v61l10 10q89 3 109 14.5t22 48.5q7 130 7 279v143q0 194 -15 230q-8 20 -43 25q-13 2 -86 5l-8 -39
l-10 -10l-143 1q-46 0 -75 -1v-178q0 -454 14 -485q7 -16 29 -23.5t106 -9.5l10 -10v-61l-10 -10l-74 3q-106 4 -200 4q-159 0 -253 -7l-10 10v61l10 10q80 3 99.5 14.5t21.5 48.5q7 130 7 455v178q-21 1 -67 -2l-53 -3l-10 10v31l9 14l75 46q34 21 40 28t6 19v15
q0 154 20 210q11 30 42 68q9 11 130 126l62 59q27 27 68 64q55 40 134 40q33 0 76 -14q-2 -33 -4 -107q-1 -41 2 -100l-31 -18q-48 50 -122 50q-54 0 -83 -22t-36.5 -65.5t-7.5 -181.5v-140q149 0 235 4q138 6 230 30q62 16 157 48l21 -13q-13 -182 -13 -307v-319
q0 -73 7 -203q2 -37 22 -48.5t109 -14.5l11 -10v-61z" />
    <glyph glyph-name="uniFB02" unicode="fl" horiz-adv-x="1258" 
d="M1226 3l-10 -10q-95 7 -264 7t-263 -7l-10 10v61l10 10q89 3 109 14.5t22 48.5q7 130 7 455v335q0 210 -7 340q-2 37 -21 48q-15 9 -74 13l2 -54l-31 -18q-48 50 -122 50q-54 0 -83 -22t-36.5 -65.5t-7.5 -181.5v-140h61q68 0 176 8l14 -11l-23 -114l-10 -10l-143 1
q-46 0 -75 -1v-178q0 -454 14 -485q7 -16 29 -23.5t106 -9.5l10 -10v-61l-10 -10l-74 3q-106 4 -200 4q-159 0 -253 -7l-10 10v61l10 10q80 3 99.5 14.5t21.5 48.5q7 130 7 455v178q-21 1 -67 -2l-53 -3l-10 10v31l9 14l75 46q34 21 40 28t6 19v15q0 154 20 210q11 30 42 68
q9 11 130 126l62 59q27 27 68 64q55 40 134 40q33 0 76 -14q-1 -17 -3 -69q63 8 125 19q79 14 218 59l21 -12q0 -27 -3 -99q-10 -239 -10 -529v-258q0 -325 7 -455q2 -37 22 -48.5t109 -14.5l11 -10v-61z" />
    <glyph glyph-name="uniFB00" unicode="ff" horiz-adv-x="1383" 
d="M1359 1481q-2 -33 -4 -107q-1 -41 2 -100l-31 -18q-48 50 -122 50q-54 0 -83 -22t-36.5 -65.5t-7.5 -181.5v-140h61q68 0 176 8l14 -11l-23 -114l-10 -10l-143 1q-46 0 -75 -1v-178q0 -454 14 -485q7 -16 29 -23.5t106 -9.5l10 -10v-61l-10 -10l-74 3q-106 4 -200 4
q-159 0 -253 -7l-10 10v61l10 10q80 3 99.5 14.5t21.5 48.5q7 130 7 455v178h-380v-178q0 -454 14 -485q7 -16 29 -23.5t106 -9.5l10 -10v-61l-10 -10l-74 3q-106 4 -200 4q-159 0 -253 -7l-10 10v61l10 10q80 3 99.5 14.5t21.5 48.5q7 130 7 455v178q-21 1 -67 -2l-53 -3
l-10 10v31l9 14l75 46q34 21 40 28t6 19v15q0 154 20 210q11 30 42 68q9 11 130 126l62 59q27 27 68 64q55 40 134 40q33 0 76 -14q-2 -33 -4 -107q-1 -41 2 -100l-31 -18q-48 50 -122 50q-54 0 -83 -22t-36.5 -65.5t-7.5 -181.5v-140h380v31q0 154 20 210q11 30 42 68
q9 11 130 126l62 59q27 27 68 64q55 40 134 40q33 0 76 -14z" />
    <glyph glyph-name="uniFB03" unicode="ffi" horiz-adv-x="1888" 
d="M1748 1308q0 -64 -45 -109.5t-108 -45.5q-64 0 -109 45.5t-45 109.5q0 66 45.5 111t108.5 45q62 0 107.5 -45t45.5 -111zM1856 3l-10 -10q-95 7 -264 7t-263 -7l-10 10v61l10 10q89 3 109 14.5t22 48.5q7 130 7 279v143q0 194 -15 230q-8 20 -43 25q-13 2 -86 5l-8 -39
l-10 -10l-143 1q-46 0 -75 -1v-178q0 -454 14 -485q7 -16 29 -23.5t106 -9.5l10 -10v-61l-10 -10l-74 3q-106 4 -200 4q-159 0 -253 -7l-10 10v61l10 10q80 3 99.5 14.5t21.5 48.5q7 130 7 455v178h-380v-178q0 -454 14 -485q7 -16 29 -23.5t106 -9.5l10 -10v-61l-10 -10
l-74 3q-106 4 -200 4q-159 0 -253 -7l-10 10v61l10 10q80 3 99.5 14.5t21.5 48.5q7 130 7 455v178q-21 1 -67 -2l-53 -3l-10 10v31l9 14l75 46q34 21 40 28t6 19v15q0 154 20 210q11 30 42 68q9 11 130 126l62 59q27 27 68 64q55 40 134 40q33 0 76 -14q-2 -33 -4 -107
q-1 -41 2 -100l-31 -18q-48 50 -122 50q-54 0 -83 -22t-36.5 -65.5t-7.5 -181.5v-140h380v31q0 154 20 210q11 30 42 68q9 11 130 126l62 59q27 27 68 64q55 40 134 40q33 0 76 -14q-2 -33 -4 -107q-1 -41 2 -100l-31 -18q-48 50 -122 50q-54 0 -83 -22t-36.5 -65.5
t-7.5 -181.5v-140q149 0 235 4q138 6 230 30q62 16 157 48l21 -13q-13 -182 -13 -307v-319q0 -73 7 -203q2 -37 22 -48.5t109 -14.5l11 -10v-61z" />
    <glyph glyph-name="uniFB04" unicode="ffl" horiz-adv-x="1888" 
d="M1856 3l-10 -10q-95 7 -264 7t-263 -7l-10 10v61l10 10q89 3 109 14.5t22 48.5q7 130 7 455v335q0 210 -7 340q-2 37 -21 48q-15 9 -74 13l2 -54l-31 -18q-48 50 -122 50q-54 0 -83 -22t-36.5 -65.5t-7.5 -181.5v-140h61q68 0 176 8l14 -11l-23 -114l-10 -10l-143 1
q-46 0 -75 -1v-178q0 -454 14 -485q7 -16 29 -23.5t106 -9.5l10 -10v-61l-10 -10l-74 3q-106 4 -200 4q-159 0 -253 -7l-10 10v61l10 10q80 3 99.5 14.5t21.5 48.5q7 130 7 455v178h-380v-178q0 -454 14 -485q7 -16 29 -23.5t106 -9.5l10 -10v-61l-10 -10l-74 3
q-106 4 -200 4q-159 0 -253 -7l-10 10v61l10 10q80 3 99.5 14.5t21.5 48.5q7 130 7 455v178q-21 1 -67 -2l-53 -3l-10 10v31l9 14l75 46q34 21 40 28t6 19v15q0 154 20 210q11 30 42 68q9 11 130 126l62 59q27 27 68 64q55 40 134 40q33 0 76 -14q-2 -33 -4 -107
q-1 -41 2 -100l-31 -18q-48 50 -122 50q-54 0 -83 -22t-36.5 -65.5t-7.5 -181.5v-140h380v31q0 154 20 210q11 30 42 68q9 11 130 126l62 59q27 27 68 64q55 40 134 40q33 0 76 -14q-1 -17 -3 -69q63 8 125 19q79 14 218 59l21 -12q0 -27 -3 -99q-10 -239 -10 -529v-258
q0 -325 7 -455q2 -37 22 -48.5t109 -14.5l11 -10v-61z" />
    <glyph glyph-name="f_b.liga" unicode="fb" horiz-adv-x="1890" 
d="M1784 575q0 -181 -86 -313q-37 -57 -67 -80t-127 -91l-113 -80q-48 -34 -109 -47q-38 -8 -85 -8q-118 0 -251 83l-93 -75l-45 16q19 318 19 554v393q0 52 -5 242q-1 53 -5 95q-5 52 -53 61q-7 1 -39 3l2 -54l-31 -18q-48 50 -122 50q-54 0 -83 -22t-36.5 -65.5
t-7.5 -181.5v-140h61q68 0 176 8l14 -11l-23 -114l-10 -10l-143 1q-46 0 -75 -1v-178q0 -454 14 -485q7 -16 29 -23.5t106 -9.5l10 -10v-61l-10 -10l-74 3q-106 4 -200 4q-159 0 -253 -7l-10 10v61l10 10q80 3 99.5 14.5t21.5 48.5q7 130 7 455v178q-21 1 -67 -2l-53 -3
l-10 10v31l9 14l75 46q34 21 40 28t6 19v15q0 154 20 210q11 30 42 68q9 11 130 126l62 59q27 27 68 64q55 40 134 40q33 0 76 -14q-1 -17 -3 -69q93 11 149 23q69 15 193 55l22 -12q-13 -374 -13 -579v-106l121 101q90 75 207 75q242 0 335 -192q44 -91 44 -202zM1527 463
q0 147 -67.5 235t-181.5 88q-66 0 -127 -35q-51 -29 -74 -67v-472q75 -111 207 -111q118 0 182 102q61 97 61 260z" />
    <glyph glyph-name="f_f_b.liga" unicode="ffb" horiz-adv-x="2520" 
d="M2414 575q0 -181 -86 -313q-37 -57 -67 -80t-127 -91l-113 -80q-48 -34 -109 -47q-38 -8 -85 -8q-118 0 -251 83l-93 -75l-45 16q19 318 19 554v393q0 52 -5 242q-1 53 -5 95q-5 52 -53 61q-7 1 -39 3l2 -54l-31 -18q-48 50 -122 50q-54 0 -83 -22t-36.5 -65.5
t-7.5 -181.5v-140h61q68 0 176 8l14 -11l-23 -114l-10 -10l-143 1q-46 0 -75 -1v-178q0 -454 14 -485q7 -16 29 -23.5t106 -9.5l10 -10v-61l-10 -10l-74 3q-106 4 -200 4q-159 0 -253 -7l-10 10v61l10 10q80 3 99.5 14.5t21.5 48.5q7 130 7 455v178h-380v-178
q0 -454 14 -485q7 -16 29 -23.5t106 -9.5l10 -10v-61l-10 -10l-74 3q-106 4 -200 4q-159 0 -253 -7l-10 10v61l10 10q80 3 99.5 14.5t21.5 48.5q7 130 7 455v178q-21 1 -67 -2l-53 -3l-10 10v31l9 14l75 46q34 21 40 28t6 19v15q0 154 20 210q11 30 42 68q9 11 130 126
l62 59q27 27 68 64q55 40 134 40q33 0 76 -14q-2 -33 -4 -107q-1 -41 2 -100l-31 -18q-48 50 -122 50q-54 0 -83 -22t-36.5 -65.5t-7.5 -181.5v-140h380v31q0 154 20 210q11 30 42 68q9 11 130 126l62 59q27 27 68 64q55 40 134 40q33 0 76 -14q-1 -17 -3 -69q93 11 149 23
q69 15 193 55l22 -12q-13 -374 -13 -579v-106l121 101q90 75 207 75q242 0 335 -192q44 -91 44 -202zM2157 463q0 147 -67.5 235t-181.5 88q-66 0 -127 -34q-51 -30 -74 -68v-472q75 -111 207 -111q118 0 182 102q61 97 61 260z" />
    <glyph glyph-name="f_h.liga" unicode="fh" horiz-adv-x="1856" 
d="M1813 4l-10 -11q-110 7 -166 7q-70 0 -204 -7l-10 10q18 223 18 344v196q0 244 -176 244q-94 0 -146 -65q-42 -52 -42 -134v-118q0 -203 7 -333q2 -37 22 -48.5t99 -14.5l11 -10v-61l-10 -10q-95 7 -254 7t-253 -7l-10 10v61l10 10q80 3 99.5 14.5t21.5 48.5q7 130 7 455
v335q0 210 -7 340q-2 37 -21 48q-15 9 -74 13l2 -54l-31 -18q-48 50 -122 50q-54 0 -83 -22t-36.5 -65.5t-7.5 -181.5v-140h61q68 0 176 8l14 -11l-23 -114l-10 -10l-143 1q-46 0 -75 -1v-178q0 -454 14 -485q7 -16 29 -23.5t106 -9.5l10 -10v-61l-10 -10l-74 3
q-106 4 -200 4q-159 0 -253 -7l-10 10v61l10 10q80 3 99.5 14.5t21.5 48.5q7 130 7 455v178q-21 1 -67 -2l-53 -3l-10 10v31l9 14l75 46q34 21 40 28t6 19v15q0 154 20 210q11 30 42 68q9 11 130 126l62 59q27 27 68 64q55 40 134 40q33 0 76 -14q-1 -17 -3 -69q63 8 125 19
q79 14 218 59l21 -12q0 -27 -3 -99q-10 -239 -10 -529v-56l176 148q66 27 145 27q159 0 238 -96q64 -78 64 -229q0 -17 -4 -122t-4 -191q0 -151 5 -192.5t23.5 -53t83.5 -12.5l9 -10v-59z" />
    <glyph glyph-name="f_f_h.liga" unicode="ffh" horiz-adv-x="2486" 
d="M2443 4l-10 -11q-110 7 -166 7q-70 0 -204 -7l-10 10q18 223 18 344v196q0 244 -176 244q-94 0 -146 -65q-42 -52 -42 -134v-118q0 -203 7 -333q2 -37 22 -48.5t99 -14.5l11 -10v-61l-10 -10q-95 7 -254 7t-253 -7l-10 10v61l10 10q80 3 99.5 14.5t21.5 48.5q7 130 7 455
v335q0 210 -7 340q-2 37 -21 48q-15 9 -74 13l2 -54l-31 -18q-48 50 -122 50q-54 0 -83 -22t-36.5 -65.5t-7.5 -181.5v-140h61q68 0 176 8l14 -11l-23 -114l-10 -10l-143 1q-46 0 -75 -1v-178q0 -454 14 -485q7 -16 29 -23.5t106 -9.5l10 -10v-61l-10 -10l-74 3
q-106 4 -200 4q-159 0 -253 -7l-10 10v61l10 10q80 3 99.5 14.5t21.5 48.5q7 130 7 455v178h-380v-178q0 -454 14 -485q7 -16 29 -23.5t106 -9.5l10 -10v-61l-10 -10l-74 3q-106 4 -200 4q-159 0 -253 -7l-10 10v61l10 10q80 3 99.5 14.5t21.5 48.5q7 130 7 455v178
q-21 1 -67 -2l-53 -3l-10 10v31l9 14l75 46q34 21 40 28t6 19v15q0 154 20 210q11 30 42 68q9 11 130 126l62 59q27 27 68 64q55 40 134 40q33 0 76 -14q-2 -33 -4 -107q-1 -41 2 -100l-31 -18q-48 50 -122 50q-54 0 -83 -22t-36.5 -65.5t-7.5 -181.5v-140h380v31
q0 154 20 210q11 30 42 68q9 11 130 126l62 59q27 27 68 64q55 40 134 40q33 0 76 -14q-1 -17 -3 -69q63 8 125 19q79 14 218 59l21 -12q0 -27 -3 -99q-10 -239 -10 -529v-56l176 148q66 27 145 27q159 0 238 -96q64 -78 64 -229q0 -17 -4 -122t-4 -191q0 -151 5 -192.5
t23.5 -53t83.5 -12.5l9 -10v-59z" />
    <glyph glyph-name="f_k.liga" unicode="fk" horiz-adv-x="1862" 
d="M1841 3l-10 -10q-67 4 -163 4q-89 0 -176 -4q-56 102 -271 339q-113 125 -144 147l7 -342q2 -37 22 -49t99 -14l11 -10v-61l-10 -10q-95 7 -254 7t-253 -7l-10 10v61l10 10q79 2 99 13.5t22 49.5q7 130 7 455v335q0 210 -7 340q-2 37 -21 48q-15 9 -74 13l2 -54l-31 -18
q-48 50 -122 50q-54 0 -83 -22t-36.5 -65.5t-7.5 -181.5v-140h61q68 0 176 8l14 -11l-23 -114l-10 -10l-143 1q-46 0 -75 -1v-178q0 -454 14 -485q7 -16 29 -23.5t106 -9.5l10 -10v-61l-10 -10l-74 3q-106 4 -200 4q-159 0 -253 -7l-10 10v61l10 10q80 3 99.5 14.5
t21.5 48.5q7 130 7 455v178q-21 1 -67 -2l-53 -3l-10 10v31l9 14l75 46q34 21 40 28t6 19v15q0 154 20 210q11 30 42 68q9 11 130 126l62 59q27 27 68 64q55 40 134 40q33 0 76 -14q-1 -17 -3 -69q63 8 125 19q79 14 218 59l21 -12q0 -27 -3 -99q-10 -239 -10 -529v-327
l99 81q65 53 182 177l104 110q29 31 46 54q85 -3 138 -3q67 0 121 3l10 -10v-60l-10 -10l-73 -4q-44 -2 -91 -35q-18 -13 -76 -60l-84 -69l-30 -28l-85 -76l214 -250q204 -238 245 -258q21 -10 44 -10l10 -11v-61z" />
    <glyph glyph-name="f_f_k.liga" unicode="ffk" horiz-adv-x="2492" 
d="M2471 3l-10 -10q-67 4 -163 4q-89 0 -176 -4q-56 102 -271 339q-113 125 -144 147l7 -342q2 -37 22 -49t99 -14l11 -10v-61l-10 -10q-95 7 -254 7t-253 -7l-10 10v61l10 10q79 2 99 13.5t22 49.5q7 130 7 455v335q0 210 -7 340q-2 37 -21 48q-15 9 -74 13l2 -54l-31 -18
q-48 50 -122 50q-54 0 -83 -22t-36.5 -65.5t-7.5 -181.5v-140h61q68 0 176 8l14 -11l-23 -114l-10 -10l-143 1q-46 0 -75 -1v-178q0 -454 14 -485q7 -16 29 -23.5t106 -9.5l10 -10v-61l-10 -10l-74 3q-106 4 -200 4q-159 0 -253 -7l-10 10v61l10 10q80 3 99.5 14.5
t21.5 48.5q7 130 7 455v178h-380v-178q0 -454 14 -485q7 -16 29 -23.5t106 -9.5l10 -10v-61l-10 -10l-74 3q-106 4 -200 4q-159 0 -253 -7l-10 10v61l10 10q80 3 99.5 14.5t21.5 48.5q7 130 7 455v178q-21 1 -67 -2l-53 -3l-10 10v31l9 14l75 46q34 21 40 28t6 19v15
q0 154 20 210q11 30 42 68q9 11 130 126l62 59q27 27 68 64q55 40 134 40q33 0 76 -14q-2 -33 -4 -107q-1 -41 2 -100l-31 -18q-48 50 -122 50q-54 0 -83 -22t-36.5 -65.5t-7.5 -181.5v-140h380v31q0 154 20 210q11 30 42 68q9 11 130 126l62 59q27 27 68 64q55 40 134 40
q33 0 76 -14q-1 -17 -3 -69q63 8 125 19q79 14 218 59l21 -12q0 -27 -3 -99q-10 -239 -10 -529v-327l99 81q65 53 182 177l104 110q29 31 46 54q85 -3 138 -3q67 0 121 3l10 -10v-60l-10 -10l-73 -4q-44 -2 -91 -35q-18 -13 -76 -60l-84 -69l-30 -28l-85 -76l214 -250
q204 -238 245 -258q21 -10 44 -10l10 -11v-61z" />
    <glyph glyph-name="f_j.liga" unicode="fj" horiz-adv-x="1316" 
d="M1117 1308q0 -64 -45 -109.5t-108 -45.5q-64 0 -109 45.5t-45 109.5t45.5 110t108.5 46q62 0 107.5 -45t45.5 -111zM1090 966q-13 -64 -13 -307v-170l2 -294q2 -328 -56 -476q-78 -197 -225 -251q-60 -22 -119 -22q-17 0 -38 3l-22 72l10 14q18 -2 30 -2q105 0 138 106
q30 98 30 510v410q0 179 -13 223q-7 25 -40 31q-15 3 -91 6l-8 -39l-10 -10l-143 1q-46 0 -75 -1v-178q0 -454 14 -485q7 -16 29 -23.5t106 -9.5l10 -10v-61l-10 -10l-74 3q-106 4 -200 4q-159 0 -253 -7l-10 10v61l10 10q80 3 99.5 14.5t21.5 48.5q7 130 7 455v178
q-21 1 -67 -2l-53 -3l-10 10v31l9 14l75 46q34 21 40 28t6 19v15q0 154 20 210q11 30 42 68q9 11 130 126l62 59q27 27 68 64q55 40 134 40q33 0 76 -14q-2 -33 -4 -107q-1 -41 2 -100l-31 -18q-48 50 -122 50q-54 0 -83 -22t-36.5 -65.5t-7.5 -181.5v-140h61q75 0 173 4
q177 7 387 78z" />
    <glyph glyph-name="t_t.liga" unicode="tt" horiz-adv-x="1299" 
d="M1283 131q-7 -8 -43 -42q-59 -55 -101 -102q-49 -16 -99 -16q-139 0 -203 81q-27 35 -36 81q-10 55 -9 144l3 239v254h-372v-339q0 -163 4 -192q5 -42 35.5 -68t82.5 -26q41 0 99 22l22 -36q-7 -8 -43 -42q-59 -55 -101 -102q-49 -16 -99 -16q-139 0 -203 81
q-27 35 -36 81q-10 55 -9 144l3 239v250h-27l-53 -2h-41l-11 9v26l8 15l56 36q45 28 68 47v136q0 85 -8 180q75 24 121.5 42.5t131.5 60.5l26 -20q-12 -127 -17 -222l-9 -177h372v136q0 85 -8 180q75 24 121.5 42.5t131.5 60.5l26 -20q-12 -124 -17 -222l-9 -173h33
q109 0 188 7l11 -11l-14 -117l-10 -10h-208v-339q0 -163 4 -192q5 -42 35.5 -68t82.5 -26q41 0 99 22z" />
    <glyph glyph-name="t_z.liga" unicode="t&#x7a;" horiz-adv-x="1583" 
d="M1507 308q-22 -205 -22 -308l-7 -7q-320 8 -477 8q-124 0 -396 -8l-11 10v57l-72 -73q-49 -16 -99 -16q-139 0 -203 81q-27 35 -36 81q-10 55 -9 144l3 239v250h-27l-53 -2h-41l-11 9v26l8 15l56 36q45 28 68 47v136q0 85 -8 180q75 24 121.5 42.5t131.5 60.5l26 -20
q-12 -127 -17 -222l-9 -177h255v40l9 9q33 -2 100 -4q21 -1 245 -3l145 -1q66 0 299 7l10 -11v-61l-181 -245l-157 -220l-133 -191q-52 -75 -74 -110l108 -2q59 -1 195 5q122 5 136 18q25 22 55 180l11 10h50zM1151 831h-117q-226 0 -249 -18t-28 -51q-2 -16 -11 -70l-4 -24
l-11 -10h-49l-11 10l5 102h-253v-339q0 -169 -2 -135q5 -94 40 -124q32 -27 84 -27q41 0 99 22l15 -24l113 153z" />
    <glyph glyph-name=".notdef" horiz-adv-x="1540" 
d="M1490 794q0 -80 -46 -141q-56 -73 -152 -73q-50 0 -98 22q48 22 48 74q0 66 -70 66q-126 0 -167 -167h-118q24 209 142 324q101 99 231 99q117 0 179 -67q51 -56 51 -137zM980 1206q0 -37 -81 -249.5t-81 -381.5h-96q0 169 -81 381.5t-81 249.5q0 67 82 136l128 106
l128 -106q82 -69 82 -136zM1095 478q0 -45 -39 -45h-572q-39 0 -39 45t39 45h572q39 0 39 -45zM1170 0q-95 15 -176 121q-84 110 -106 260h112q31 -223 170 -381zM653 575h-118q-41 167 -167 167q-70 0 -70 -66q0 -52 48 -74q-48 -22 -98 -22q-96 0 -151 73q-47 61 -47 141
q0 81 51 137q62 67 179 67q130 0 231 -99q118 -115 142 -324zM839 214q0 -67 -21.5 -161t-47.5 -146q-26 52 -47.5 146t-21.5 161q0 70 20 167h98q20 -97 20 -167zM652 381q-22 -150 -106 -260q-81 -106 -176 -121q139 158 170 381h112z" />
    <glyph glyph-name="glyph1" horiz-adv-x="0" 
 />
    <glyph glyph-name="glyph2" horiz-adv-x="1536" 
 />
    <glyph glyph-name="A" unicode="A" horiz-adv-x="1593" 
d="M1544 4l-9 -10q-222 6 -268 6q-184 0 -342 -6l-9 10v63l10 11l87 5q55 3 55 39q0 21 -28 94l-81 211q-138 2 -282 2q-78 0 -232 -2l-44 -122q-50 -139 -50 -174q0 -38 47 -45q26 -4 102 -8l10 -10v-64l-10 -10q-185 6 -238 6q-41 0 -203 -6l-10 9v65l11 10
q103 6 126.5 41t176.5 417l261 653l88 229h142l530 -1247q31 -71 56 -80q33 -12 95 -12l9 -11v-64zM910 542l-214 524l-205 -524q82 -3 213 -3q127 0 206 3zM783 1468zM750 -78z" />
    <glyph glyph-name="B" unicode="B" horiz-adv-x="1353" 
d="M1237 451q0 -251 -243 -389q-120 -68 -309 -68q-60 0 -99 1l-239 5q-128 0 -198 -6l-10 10v28l5 12q74 47 80 59q9 18 11 133l3 224v507q0 238 -13 310q-5 29 -34 37q-15 4 -117 10l-10 10v68l10 9q89 -6 306 -6q138 0 249 5q88 4 149 4q279 0 366 -127q46 -67 46 -154
q0 -142 -111 -237q-53 -45 -110 -67q-66 -25 -144 -43q412 -18 412 -335zM888 1084q0 221 -230 221q-76 0 -129 -8q-4 -105 -4 -194v-276q23 -2 92 -2q181 0 238 116q33 67 33 143zM931 420q0 300 -315 300q-40 0 -91 -3v-463q0 -75 4 -147q41 -7 115 -7q140 0 216 88
q71 84 71 232z" />
    <glyph glyph-name="C" unicode="C" horiz-adv-x="1479" 
d="M1415 175l-46 -102q-211 -116 -472 -116q-522 0 -714 376q-89 174 -89 377q0 328 218 523q223 201 609 201q245 0 479 -89l13 -15q-34 -138 -42 -323l-9 -10h-59l-10 11q-3 121 -11 168q-125 141 -361 141q-243 0 -381 -154t-138 -418q0 -357 246 -548q131 -102 351 -102
q200 0 391 103z" />
    <glyph glyph-name="D" unicode="D" horiz-adv-x="1702" 
d="M1608 786q0 -339 -221 -562q-108 -109 -262 -169q-165 -65 -385 -61l-353 6q-144 2 -238 -6l-10 10v28l5 12q74 47 80 59q9 18 11 133l3 224v507q0 238 -13 310q-5 29 -34 37q-15 4 -117 10l-10 10v68l10 9q106 -6 202 -6q233 0 420 6q93 3 187 3q260 0 399 -59
q152 -65 238 -204q88 -143 88 -365zM1301 738q0 277 -134 426q-70 78 -175 110q-100 30 -279 30q-93 0 -178 -13q-10 -112 -10 -542l2 -437q1 -146 8 -194q88 -14 180 -14q199 0 314 58q124 63 197 214q75 156 75 362z" />
    <glyph glyph-name="E" unicode="E" horiz-adv-x="1241" 
d="M1165 334q-22 -146 -22 -330l-10 -10l-727 6q-182 0 -257 -6l-10 10v28l5 12q74 47 80 59q9 19 11 133l3 224v507q0 238 -13 310q-5 29 -34 37q-15 4 -117 10l-10 10v68l10 9q101 -6 312 -6q188 0 715 6l11 -8l-13 -111q-6 -53 -9 -90l-7 -93l-10 -11h-58l-10 10
q-1 136 -16 155q-11 14 -107.5 22t-169.5 8q-87 0 -176 -7q-11 -105 -11 -291v-207q79 -5 128 -5l131 1q92 1 104 15q16 18 21 135l10 10h62l10 -10q-4 -112 -4 -205q0 -101 4 -221l-10 -9h-67l-10 10q0 115 -16 136.5t-97 28.5q-61 5 -130 5q-73 0 -136 -5v-305
q0 -131 5 -254h136q292 0 358 23q11 4 16 11q10 14 19 60l24 124l10 11h61zM658 -78zM658 1468z" />
    <glyph glyph-name="F" unicode="F" horiz-adv-x="1142" 
d="M1066 1403l-13 -114q-4 -38 -9 -100l-6 -80l-10 -11h-58l-10 10q-2 135 -16 154q-23 31 -279 31q-41 0 -129 -6q-11 -102 -11 -366v-135l113 -3q51 -1 189 4q27 1 36 15q15 24 18 132l10 10h62l10 -10q-4 -112 -4 -205q0 -101 4 -221l-10 -9h-67l-10 10q0 105 -9 123
q-17 35 -103 42q-59 5 -116 5q-69 0 -123 -3v-238q0 -237 13 -310q5 -29 34 -37q7 -2 143 -10l10 -10v-67l-11 -10l-402 6q-86 1 -238 -6l-10 9v68l10 10q102 6 117 10q29 8 34 37q13 73 13 310v529q0 237 -13 310q-5 29 -34 37q-15 4 -117 10l-10 10v68l10 9q96 -6 308 -6
q137 0 674 6z" />
    <glyph glyph-name="G" unicode="G" horiz-adv-x="1706" 
d="M1608 505l-10 -11q-62 -15 -72 -41.5t-10 -202.5q0 -85 8 -168q-334 -126 -606 -126q-358 0 -579.5 200.5t-221.5 546.5q0 451 391 643q179 88 455 88q160 0 324 -35q135 -29 213 -66l9 -18q-26 -88 -43 -306l-11 -10h-60l-10 10q0 19 -4 78.5t-10 83.5q-44 60 -150 102
q-114 44 -246 44q-354 0 -489 -286q-62 -132 -62 -306q0 -278 148 -461q154 -190 401 -190q131 0 253 56q7 70 7 192q0 99 -7 120q-6 16 -38 23q-27 6 -169 15l-11 10v63l11 10q145 -4 304 -3l275 3l10 -10v-48z" />
    <glyph glyph-name="H" unicode="H" horiz-adv-x="1706" 
d="M1642 4l-10 -10q-99 6 -308 6q-214 0 -308 -6l-10 9v68l11 10q102 6 117 10q29 8 34 37q13 72 13 310v241q-51 5 -324 5q-252 0 -332 -5v-241q0 -238 13 -310q5 -29 34 -37q15 -4 117 -10l10 -10v-67l-9 -10q-100 6 -308 6q-215 0 -308 -6l-10 9v68l10 10q102 6 117 10
q29 8 34 37q13 72 13 310v529q0 238 -13 310q-5 29 -34 37q-15 4 -117 10l-10 10v68l10 9q96 -6 308 -6q217 0 308 6l9 -9v-69l-10 -9q-102 -6 -117 -10q-29 -8 -34 -37q-13 -72 -13 -310v-165q106 -5 292 -5q292 0 364 5v165q0 238 -13 310q-5 29 -34 37q-15 4 -117 10
l-11 10v68l10 9q97 -6 308 -6q218 0 308 6l10 -9v-69l-9 -9q-104 -6 -118 -10q-29 -8 -34 -37q-13 -72 -13 -310v-529q0 -238 13 -310q5 -29 34 -37q15 -4 117 -10l10 -10v-67z" />
    <glyph glyph-name="I" unicode="I" horiz-adv-x="797" 
d="M716 4l-9 -10q-100 6 -309 6q-208 0 -308 -6l-9 10v67l10 10q102 6 117 10q29 8 34 37q13 72 13 310v529q0 238 -13 310q-5 29 -34 37q-15 4 -117 10l-10 10v68l10 9q96 -6 308 -6q211 0 307 6l10 -9v-68l-10 -10q-102 -6 -117 -10q-29 -8 -34 -37q-13 -72 -13 -310v-529
q0 -238 13 -310q5 -29 34 -37q15 -4 117 -10l10 -10v-67zM398 1468zM398 -78z" />
    <glyph glyph-name="J" unicode="J" horiz-adv-x="797" 
d="M741 1333l-10 -9q-102 -6 -117 -10q-29 -8 -34 -37q-13 -73 -13 -310v-744q0 -201 -43 -313q-49 -128 -176 -239q-139 -122 -266 -122q-42 0 -82 15q5 75 5 185l23 14q81 -73 143 -73q86 0 96 91q13 118 13 354v832q0 237 -13 310q-5 29 -34 37q-7 2 -140 10l-10 10v68
l10 9q138 -6 330 -6q218 0 308 6l10 -9v-69z" />
    <glyph glyph-name="K" unicode="K" horiz-adv-x="1576" 
d="M1548 4l-10 -10q-164 6 -227 6q-56 0 -177 -6q-23 50 -103 141l-297 339q-97 110 -209 202v-238q0 -238 13 -310q5 -29 34 -37q15 -4 117 -10l10 -10v-67l-9 -10q-100 6 -308 6q-215 0 -308 -6l-10 9v68l10 10q102 6 117 10q29 8 34 37q13 72 13 310v529q0 238 -13 310
q-5 29 -34 37q-15 4 -117 10l-10 10v68l10 9q96 -6 308 -6q217 0 308 6l9 -9v-69l-10 -9q-102 -6 -117 -10q-29 -8 -34 -37q-13 -72 -13 -310v-248q187 174 268 258l142 147q73 76 187 208v69l11 10q77 -6 151 -6q87 0 204 6l10 -10v-62l-10 -10q-116 0 -172 -37
q-81 -54 -307 -268l-202 -192q43 -58 140 -171l224 -260q249 -289 288 -307q24 -11 79 -12l10 -11v-67z" />
    <glyph glyph-name="L" unicode="L" horiz-adv-x="1241" 
d="M1165 334q-22 -146 -22 -330l-10 -10l-727 6q-182 0 -257 -6l-10 10v28l5 12q74 47 80 59q9 18 11 133l3 224v507q0 238 -13 310q-5 29 -34 37q-15 4 -117 10l-10 10v68l10 9q103 -6 302 -6q206 0 313 6l10 -9v-69l-10 -9q-102 -6 -117 -10q-29 -8 -34 -37
q-13 -72 -13 -310v-598q0 -131 5 -254h136q292 0 358 23q11 4 16 11q10 14 19 60l24 124l10 11h61z" />
    <glyph glyph-name="M" unicode="M" horiz-adv-x="2048" 
d="M1976 4l-10 -10q-99 6 -308 6q-214 0 -308 -6l-9 9v68l10 10q102 6 117 10q29 8 34 37q13 72 13 310v676l-223 -457q-19 -38 -130 -280l-183 -400h-67q-52 124 -141 313l-140 297l-262 545v-694q0 -238 13 -310q5 -29 34 -37q15 -4 117 -10l10 -10v-68l-10 -9
q-115 6 -214 6q-115 0 -231 -6l-10 9v68l10 10q102 6 117 10q29 8 34 37q13 72 13 310v529q0 238 -13 310q-5 29 -34 37q-15 4 -117 10l-10 10v68l10 9q104 -6 263 -6q122 0 213 6l94 -214l64 -138l318 -665l153 310l239 511q42 91 82 196q113 -6 152 -6q196 0 300 6l10 -9
v-69l-10 -9q-102 -6 -117 -10q-29 -8 -34 -37q-13 -72 -13 -310v-529q0 -238 13 -310q5 -29 34 -37q15 -4 117 -10l10 -10v-67z" />
    <glyph glyph-name="N" unicode="N" horiz-adv-x="1706" 
d="M1640 1334l-11 -10q-102 -6 -117 -10q-29 -8 -34 -37q-13 -72 -13 -310v-406q0 -449 13 -585l-13 -9q-113 19 -171 27q-268 301 -915 1098v-654q0 -238 13 -310q5 -29 34 -37q15 -4 117 -10l10 -10v-68l-10 -9q-115 6 -214 6q-115 0 -231 -6l-10 9v68l10 10q102 6 117 10
q29 8 34 37q13 72 13 310v529q0 238 -13 310q-5 29 -34 37q-15 4 -117 10l-10 10v68l10 9q95 -6 181 -6q135 0 224 6q360 -480 846 -1029v585q0 238 -13 310q-5 29 -34 37q-15 4 -117 10l-10 10v68l10 9q112 -6 213 -6q129 0 232 6l10 -9v-68z" />
    <glyph glyph-name="O" unicode="O" horiz-adv-x="1706" 
d="M1612 739q0 -369 -215 -579q-209 -204 -571 -204q-342 0 -537 192.5t-195 535.5q0 481 367 666q167 84 411 84q349 0 543 -183q197 -186 197 -512zM1304 687q0 290 -116.5 460.5t-341.5 170.5q-297 0 -394 -267q-50 -137 -50 -307q0 -309 114 -488q118 -185 353 -185
q285 0 383 281q52 149 52 335zM847 -78zM847 1468z" />
    <glyph glyph-name="P" unicode="P" horiz-adv-x="1250" 
d="M1198 1098q0 -206 -140.5 -321.5t-317.5 -115.5q-60 0 -121 14q-9 27 -35 72l21 22q42 -14 77 -14q101 0 162 71.5t61 200.5q0 279 -251 279q-30 0 -120 -12q-9 -24 -9 -327v-529q0 -238 13 -310q5 -29 34 -37q9 -2 137 -10l11 -11v-66l-10 -10q-137 6 -328 6
q-215 0 -308 -6l-10 9v67l11 11q101 6 116 10q29 8 34 37q13 72 13 310v529q0 238 -13 310q-5 29 -34 37q-15 4 -117 10l-10 11v66l11 10q98 -6 301 -6q84 0 242 3t182 3q274 0 356 -139q42 -72 42 -174z" />
    <glyph glyph-name="Q" unicode="Q" horiz-adv-x="1706" 
d="M1612 739q0 -233 -91 -410q-94 -182 -271 -277.5t-423 -95.5q-31 0 -63 2q88 -15 308 -93l156 -55q125 -44 200 -44q51 0 156 46l10 -9v-54l-8 -14q-183 -110 -204 -131q-95 0 -381 87q-289 88 -372 88q-48 0 -188 -87l-15 5l-16 46l4 15q20 19 96 71q137 94 221 132
q-289 20 -459 206q-178 194 -178 517q0 349 205 549.5t573 200.5q450 0 642 -304q98 -155 98 -391zM1304 687q0 290 -116.5 460.5t-341.5 170.5q-297 0 -394 -267q-50 -137 -50 -307q0 -309 114 -488q118 -185 353 -185q285 0 383 281q52 149 52 335z" />
    <glyph glyph-name="R" unicode="R" horiz-adv-x="1462" 
d="M1433 4l-10 -10q-7 0 -38 1q-137 5 -171 5q-51 0 -162 -6q-4 24 -38 80l-248 414l-111 169q-21 31 -59 61l11 34q23 -1 34 -1q98 0 154 31q51 28 94 98t43 167q0 169 -126 228q-60 28 -175 28q-50 0 -96 -8q-10 -98 -10 -334v-523q0 -238 13 -310q5 -29 34 -37
q15 -4 117 -10l10 -10v-67l-9 -10q-100 6 -308 6q-215 0 -308 -6l-10 9v68l10 10q102 6 117 10q29 8 34 37q13 72 13 310v529q0 238 -13 310q-5 29 -34 37q-15 4 -117 10l-10 10v68l10 9q98 -6 308 -6q122 0 198 3q151 6 226 6q173 0 254 -31q109 -42 146 -142
q18 -49 18 -116q0 -272 -306 -386l106 -170l154 -237q136 -210 181 -239q23 -15 64 -15l10 -10v-64z" />
    <glyph glyph-name="S" unicode="S" horiz-adv-x="1251" 
d="M1144 462q0 -165 -94 -291q-82 -111 -215 -165q-122 -50 -291 -50q-210 0 -412 96l-12 22q28 115 28 327l10 10h64l9 -10v-23q0 -56 12 -148q36 -64 129 -110q97 -48 202 -48q198 0 274 138q39 71 39 147q0 128 -107 183q-53 27 -171 45q-267 41 -351 103
q-127 94 -127 291q0 205 138 327q146 128 406 128q234 0 378 -75l7 -24q-24 -119 -29 -286l-11 -10h-63l-10 10q-3 120 -10 156q-31 47 -108 80q-82 34 -171 34q-134 0 -212 -71q-73 -67 -73 -173q0 -115 83 -169q54 -35 255 -67q21 -3 117 -20q59 -10 109 -29
q101 -38 152 -116q55 -85 55 -212z" />
    <glyph glyph-name="T" unicode="T" horiz-adv-x="1366" 
d="M1325 1405q-12 -74 -13 -153l-2 -167l-10 -10h-63l-11 9q-5 128 -11 150q-12 40 -64 47q-20 3 -188 3h-134q-2 -35 -2 -278v-568q0 -238 13 -310q5 -29 34 -37q15 -4 117 -10l10 -10v-67l-10 -10q-99 6 -308 6q-214 0 -308 -6l-9 9v68l10 10q102 6 117 10q29 8 34 37
q13 72 13 310v568q0 247 -3 278h-143q-179 0 -209 -11q-16 -6 -22 -15q-9 -16 -15 -64q-7 -53 -9 -109l-10 -10h-63l-11 10l-2 171q-1 72 -12 149l9 10q59 -10 430 -10h405q342 0 430 10z" />
    <glyph glyph-name="U" unicode="U" horiz-adv-x="1593" 
d="M1540 1334l-10 -10q-118 0 -133 -63q-8 -35 -12 -152q-3 -87 -3 -251v-308q0 -297 -117 -424q-155 -168 -442 -168q-262 0 -409 87q-124 74 -162 210q-24 87 -24 454v258q0 238 -13 310q-5 29 -34 37q-15 4 -117 10l-10 10v67l10 10q96 -6 308 -6q216 0 307 6l10 -10v-67
l-10 -10q-102 -6 -117 -10q-29 -8 -34 -37q-13 -72 -13 -310v-206q0 -378 34 -463q68 -168 335 -168q175 0 273 86q46 41 64 83t28 130q9 82 9 166v208q0 262 -2 358q-2 90 -12 117q-8 20 -35 31q-23 9 -123 15l-10 10v67l10 10q87 -6 179 -6q69 0 265 6l10 -10v-67z
M823 1468zM823 -78z" />
    <glyph glyph-name="V" unicode="V" horiz-adv-x="1593" 
d="M1560 1333l-10 -10q-70 -7 -89.5 -16.5t-41.5 -45.5q-24 -39 -86 -188l-71 -169l-134 -326q-173 -420 -233 -591h-152l-459 1113q-73 174 -102 200q-22 21 -122 23l-10 11v66l11 11q105 -6 265 -6q200 0 364 6l10 -11v-67l-9 -10q-101 -1 -133 -18q-17 -10 -17 -34
q0 -26 65 -190l47 -119l253 -625l222 557q13 32 60 161q68 186 68 217q0 33 -22 40t-134 11l-10 10v68l11 10q113 -6 235 -6q87 0 213 6l11 -11v-67z" />
    <glyph glyph-name="W" unicode="W" horiz-adv-x="2048" 
d="M2036 1336l-10 -9q-47 -2 -54 -3q-33 -6 -49 -22.5t-28 -50.5q-24 -66 -89 -296q-33 -116 -93 -348l-90 -346q-56 -214 -63 -274h-153l-51 138l-234 612l-57 143l-39 104l-261 -619l-109 -268l-44 -110h-146l-247 1147q-19 88 -28 115q-20 63 -57 71q-17 4 -78 8l-10 9
v63l11 11q177 -6 268 -6q108 0 316 6l11 -10v-64l-10 -9q-68 -3 -77 -4q-38 -4 -50 -15.5t-12 -36.5q0 -23 19 -125l34 -183q15 -79 53 -255l59 -271l126 303l114 271l118 286q33 79 52 131h92q102 -288 380 -978l177 709q20 85 20 106q0 45 -47 52q-17 3 -107 9l-10 10v63
l11 11q172 -7 200 -6l232 6l10 -10v-65z" />
    <glyph glyph-name="X" unicode="X" horiz-adv-x="1366" 
d="M1329 7l-10 -10l-204 3q-50 1 -175 -3q-30 37 -98 163l-208 385l-79 -113q-150 -215 -278 -435q-46 3 -92 3q-93 0 -136 -3l-10 10v64l10 11q82 6 99 17q30 19 136 163l131 177q8 10 160 216l-76 134l-122 211q-130 224 -198 265q-23 14 -48 14q-20 0 -62 -3l-13 10
l-8 53l9 15q141 29 363 80q63 -41 130 -148q32 -52 100 -178l113 -210l130 190q161 236 209 321q41 -4 81 -4q67 0 136 4l10 -10v-66l-10 -10q-69 -1 -91.5 -15t-87.5 -95t-171 -225l-144 -199l143 -259l128 -220q106 -182 133.5 -205.5t89.5 -23.5l10 -10v-64z" />
    <glyph glyph-name="Y" unicode="Y" horiz-adv-x="1366" 
d="M1349 1364q-158 -215 -346 -527q-106 -176 -117 -225q-6 -26 -6 -75v-99q0 -293 18 -326q8 -14 23 -18q25 -7 123 -13l10 -10v-67l-10 -10q-99 6 -308 6q-214 0 -308 -6l-9 9v68l10 10q98 6 123 13q15 4 23 18q18 33 18 326v118q0 38 -157 304q-160 271 -255 368
q-46 47 -62 53.5t-75 6.5l-11 11v56l10 11q244 48 313 68q52 -25 93 -65q85 -83 228 -370l131 -262q59 95 225 382l111 199l49 91h146l10 -10v-35zM736 -78zM736 1468z" />
    <glyph glyph-name="Z" unicode="Z" horiz-adv-x="1366" 
d="M1281 347q-21 -182 -32 -344l-10 -9q-411 8 -624 8q-156 0 -553 -8l-10 9v70q74 93 226 309l146 208l187 275l278 421l-251 -1q-291 -1 -335 -14q-26 -7 -36 -40q-4 -13 -17 -93l-8 -50l-11 -10h-61l-10 12q7 106 7 191q0 27 -2 120l10 10q136 -6 606 -6q111 0 483 6
l10 -10v-60l-82 -115l-222 -314l-296 -434l-233 -358q53 -2 161 -2q507 0 540 28q18 15 46 154q6 29 11 48l11 10h60z" />
    <glyph glyph-name="Aacute" unicode="&#xc1;" horiz-adv-x="1593" 
d="M1544 4l-9 -10q-222 6 -268 6q-184 0 -342 -6l-9 10v63l10 11l87 5q55 3 55 39q0 21 -28 94l-81 211q-138 2 -282 2q-78 0 -232 -2l-44 -122q-50 -139 -50 -174q0 -38 47 -45q26 -4 102 -8l10 -10v-64l-10 -10q-185 6 -238 6q-41 0 -203 -6l-10 9v65l11 10
q103 6 126.5 41t176.5 417l261 653l88 229h142l530 -1247q31 -71 56 -80q33 -12 95 -12l9 -11v-64zM910 542l-214 524l-205 -524q82 -3 213 -3q127 0 206 3zM783 1468zM750 -78zM1115 1875l-451 -326l-46 35v14l219 276l256 31z" />
    <glyph glyph-name="Agrave" unicode="&#xc0;" horiz-adv-x="1593" 
d="M1544 4l-9 -10q-222 6 -268 6q-184 0 -342 -6l-9 10v63l10 11l87 5q55 3 55 39q0 21 -28 94l-81 211q-138 2 -282 2q-78 0 -232 -2l-44 -122q-50 -139 -50 -174q0 -38 47 -45q26 -4 102 -8l10 -10v-64l-10 -10q-185 6 -238 6q-41 0 -203 -6l-10 9v65l11 10
q103 6 126.5 41t176.5 417l261 653l88 229h142l530 -1247q31 -71 56 -80q33 -12 95 -12l9 -11v-64zM910 542l-214 524l-205 -524q82 -3 213 -3q127 0 206 3zM783 1468zM750 -78zM948 1584l-46 -35l-451 326l22 30l256 -31l219 -276v-14z" />
    <glyph glyph-name="Acircumflex" unicode="&#xc2;" horiz-adv-x="1593" 
d="M1544 4l-9 -10q-222 6 -268 6q-184 0 -342 -6l-9 10v63l10 11l87 5q55 3 55 39q0 21 -28 94l-81 211q-138 2 -282 2q-78 0 -232 -2l-44 -122q-50 -139 -50 -174q0 -38 47 -45q26 -4 102 -8l10 -10v-64l-10 -10q-185 6 -238 6q-41 0 -203 -6l-10 9v65l11 10
q103 6 126.5 41t176.5 417l261 653l88 229h142l530 -1247q31 -71 56 -80q33 -12 95 -12l9 -11v-64zM910 542l-214 524l-205 -524q82 -3 213 -3q127 0 206 3zM783 1468zM750 -78zM1126 1549l-3 -10h-77l-263 215l-263 -215h-77l-3 10l245 356h196zM1156 1660zM783 1864z" />
    <glyph glyph-name="Adieresis" unicode="&#xc4;" horiz-adv-x="1593" 
d="M1544 4l-9 -10q-222 6 -268 6q-184 0 -342 -6l-9 10v63l10 11l87 5q55 3 55 39q0 21 -28 94l-81 211q-138 2 -282 2q-78 0 -232 -2l-44 -122q-50 -139 -50 -174q0 -38 47 -45q26 -4 102 -8l10 -10v-64l-10 -10q-185 6 -238 6q-41 0 -203 -6l-10 9v65l11 10
q103 6 126.5 41t176.5 417l261 653l88 229h142l530 -1247q31 -71 56 -80q33 -12 95 -12l9 -11v-64zM910 542l-214 524l-205 -524q82 -3 213 -3q127 0 206 3zM783 1468zM750 -78zM1149 1722q0 -61 -42.5 -103.5t-103.5 -42.5q-60 0 -102.5 42.5t-42.5 103.5t43 104.5
t102 43.5t102.5 -42.5t43.5 -105.5zM709 1722q0 -60 -43 -103t-102 -43q-61 0 -103 42.5t-42 103.5q0 63 43 105.5t102 42.5t102 -43.5t43 -104.5z" />
    <glyph glyph-name="Atilde" unicode="&#xc3;" horiz-adv-x="1593" 
d="M1544 4l-9 -10q-222 6 -268 6q-184 0 -342 -6l-9 10v63l10 11l87 5q55 3 55 39q0 21 -28 94l-81 211q-138 2 -282 2q-78 0 -232 -2l-44 -122q-50 -139 -50 -174q0 -38 47 -45q26 -4 102 -8l10 -10v-64l-10 -10q-185 6 -238 6q-41 0 -203 -6l-10 9v65l11 10
q103 6 126.5 41t176.5 417l261 653l88 229h142l530 -1247q31 -71 56 -80q33 -12 95 -12l9 -11v-64zM910 542l-214 524l-205 -524q82 -3 213 -3q127 0 206 3zM783 1468zM750 -78zM1169 1860q-21 -113 -86 -188q-66 -78 -147 -78q-55 0 -131 35q-27 13 -79 36q-20 10 -68 32
q-40 18 -77 18q-80 0 -114 -114h-63l-7 10q21 113 86.5 189.5t146.5 76.5q55 0 131 -35q27 -13 79 -36q20 -10 68 -32q40 -18 77 -18q80 0 114 114h63z" />
    <glyph glyph-name="Abreve" unicode="&#x102;" horiz-adv-x="1593" 
d="M1544 4l-9 -10q-222 6 -268 6q-184 0 -342 -6l-9 10v63l10 11l87 5q55 3 55 39q0 21 -28 94l-81 211q-138 2 -282 2q-78 0 -232 -2l-44 -122q-50 -139 -50 -174q0 -38 47 -45q26 -4 102 -8l10 -10v-64l-10 -10q-185 6 -238 6q-41 0 -203 -6l-10 9v65l11 10
q103 6 126.5 41t176.5 417l261 653l88 229h142l530 -1247q31 -71 56 -80q33 -12 95 -12l9 -11v-64zM910 542l-214 524l-205 -524q82 -3 213 -3q127 0 206 3zM783 1468zM750 -78zM1081 1897q-7 -334 -297 -334q-291 0 -298 334l10 10h60q20 -169 228 -169t228 169h60z
M787 1907z" />
    <glyph glyph-name="Aring" unicode="&#xc5;" horiz-adv-x="1593" 
d="M1544 4l-9 -10q-222 6 -268 6q-184 0 -342 -6l-9 10v63l10 11l87 5q55 3 55 39q0 21 -28 94l-81 211q-138 2 -282 2q-78 0 -232 -2l-44 -122q-50 -139 -50 -174q0 -38 47 -45q26 -4 102 -8l10 -10v-64l-10 -10q-185 6 -238 6q-41 0 -203 -6l-10 9v65l11 10
q103 6 126.5 41t176.5 417l261 653l88 229h142l530 -1247q31 -71 56 -80q33 -12 95 -12l9 -11v-64zM910 542l-214 524l-205 -524q82 -3 213 -3q127 0 206 3zM783 1468zM750 -78zM1005 1729q0 -89 -64 -146t-158 -57t-158 57t-64 146q0 88 64.5 144.5t157.5 56.5
q94 0 158 -57t64 -144zM896 1729q0 54 -26 92q-31 44 -87 44t-86 -44q-26 -38 -26 -92t26 -92q30 -45 86 -45t87 45q26 38 26 92z" />
    <glyph glyph-name="Aringacute" unicode="&#x1fa;" horiz-adv-x="1593" 
d="M1544 4l-9 -10q-222 6 -268 6q-184 0 -342 -6l-9 10v63l10 11l87 5q55 3 55 39q0 21 -28 94l-81 211q-138 2 -282 2q-78 0 -232 -2l-44 -122q-50 -139 -50 -174q0 -38 47 -45q26 -4 102 -8l10 -10v-64l-10 -10q-185 6 -238 6q-41 0 -203 -6l-10 9v65l11 10
q103 6 126.5 41t176.5 417l261 653l88 229h142l530 -1247q31 -71 56 -80q33 -12 95 -12l9 -11v-64zM910 542l-214 524l-205 -524q82 -3 213 -3q127 0 206 3zM783 1468zM750 -78zM983 1600q0 -82 -56.5 -132t-143.5 -50t-142 49q-58 51 -58 133t58 133q55 48 142 48t142 -48
q58 -51 58 -133zM885 1600q0 52 -27 87t-75 35t-75 -35t-27 -87t26 -86q28 -37 76 -37t76 37q26 34 26 86zM1095 2120l-451 -326l-46 35v14l219 276l256 31z" />
    <glyph glyph-name="Amacron" unicode="&#x100;" horiz-adv-x="1593" 
d="M1544 4l-9 -10q-222 6 -268 6q-184 0 -342 -6l-9 10v63l10 11l87 5q55 3 55 39q0 21 -28 94l-81 211q-138 2 -282 2q-78 0 -232 -2l-44 -122q-50 -139 -50 -174q0 -38 47 -45q26 -4 102 -8l10 -10v-64l-10 -10q-185 6 -238 6q-41 0 -203 -6l-10 9v65l11 10
q103 6 126.5 41t176.5 417l261 653l88 229h142l530 -1247q31 -71 56 -80q33 -12 95 -12l9 -11v-64zM910 542l-214 524l-205 -524q82 -3 213 -3q127 0 206 3zM783 1468zM750 -78zM1136 1638h-707v166h707v-166z" />
    <glyph glyph-name="Aogonek" unicode="&#x104;" horiz-adv-x="1593" 
d="M1544 4l-9 -10l-195 5q-117 -107 -117 -243q0 -152 136 -152q61 0 130 28l12 -8l7 -35l-4 -13q-36 -25 -84 -40q-63 -20 -129 -20q-230 0 -230 210q0 166 199 274q-177 0 -335 -6l-9 10v63l10 11l87 5q55 3 55 39q0 21 -28 94l-81 211q-138 2 -282 2q-78 0 -232 -2
l-44 -122q-50 -139 -50 -174q0 -38 47 -45q26 -4 102 -8l10 -10v-64l-10 -10q-185 6 -238 6q-41 0 -203 -6l-10 9v65l11 10q103 6 126.5 41t176.5 417l261 653l88 229h142l530 -1247q30 -71 56 -80q33 -12 95 -12l9 -11v-64zM910 542l-214 524l-205 -524q82 -3 213 -3
q127 0 206 3z" />
    <glyph glyph-name="AE" unicode="&#xc6;" horiz-adv-x="2048" 
d="M1930 334q-22 -146 -22 -330l-10 -10l-720 6q-198 0 -265 -6l-10 10v28l6 12l67 36q18 16 22 82q2 30 4 276h-533l-31 -52q-94 -157 -119 -229q-10 -28 -10 -39q0 -37 66 -40q31 -1 86 -5l11 -10v-58l-10 -10q-60 5 -306 5q-84 0 -138 -5l-10 10v58l11 11q88 9 112 36
q21 25 85 131l407 681q198 331 198 365q0 22 -49 26l-139 11l-10 10v67l10 10l515 -6q191 0 718 6l10 -10l-12 -109l-9 -90l-7 -93l-10 -11h-58l-10 10q-1 136 -16 155q-11 14 -107.5 22t-169.5 8q-87 0 -176 -7q-11 -105 -11 -291v-207q79 -5 128 -5l131 1q92 1 104 15
q16 18 21 135l10 10h62l10 -10q-4 -112 -4 -205q0 -101 4 -221l-10 -9h-67l-10 10q0 115 -16 136.5t-97 28.5q-61 5 -130 5q-73 0 -136 -5v-305q0 -131 5 -254h136q292 0 358 23q11 4 16 11q10 14 19 60l24 124l10 11h61zM1003 549v685q0 49 -18 49q-8 0 -23 -21
q-8 -11 -79 -126l-185 -305l-161 -282h466z" />
    <glyph glyph-name="AEacute" unicode="&#x1fc;" horiz-adv-x="2048" 
d="M1930 334q-22 -146 -22 -330l-10 -10l-720 6q-198 0 -265 -6l-10 10v28l6 12l67 36q18 16 22 82q2 30 4 276h-533l-31 -52q-94 -157 -119 -229q-10 -28 -10 -39q0 -37 66 -40q31 -1 86 -5l11 -10v-58l-10 -10q-60 5 -306 5q-84 0 -138 -5l-10 10v58l11 11q88 9 112 36
q21 25 85 131l407 681q198 331 198 365q0 22 -49 26l-139 11l-10 10v67l10 10l515 -6q191 0 718 6l10 -10l-12 -109l-9 -90l-7 -93l-10 -11h-58l-10 10q-1 136 -16 155q-11 14 -107.5 22t-169.5 8q-87 0 -176 -7q-11 -105 -11 -291v-207q79 -5 128 -5l131 1q92 1 104 15
q16 18 21 135l10 10h62l10 -10q-4 -112 -4 -205q0 -101 4 -221l-10 -9h-67l-10 10q0 115 -16 136.5t-97 28.5q-61 5 -130 5q-73 0 -136 -5v-305q0 -131 5 -254h136q292 0 358 23q11 4 16 11q10 14 19 60l24 124l10 11h61zM1003 549v685q0 49 -18 49q-8 0 -23 -21
q-8 -11 -79 -126l-185 -305l-161 -282h466zM1684 1875l-451 -326l-46 35v14l219 276l256 31z" />
    <glyph glyph-name="Cacute" unicode="&#x106;" horiz-adv-x="1479" 
d="M1415 175l-46 -102q-211 -116 -472 -116q-522 0 -714 376q-89 174 -89 377q0 328 218 523q223 201 609 201q245 0 479 -89l13 -15q-34 -138 -42 -323l-9 -10h-59l-10 11q-3 121 -11 168q-125 141 -361 141q-243 0 -381 -154t-138 -418q0 -357 246 -548q131 -102 351 -102
q200 0 391 103zM1229 1875l-451 -326l-46 35v14l219 276l256 31z" />
    <glyph glyph-name="Ccircumflex" unicode="&#x108;" horiz-adv-x="1479" 
d="M1415 175l-46 -102q-211 -116 -472 -116q-522 0 -714 376q-89 174 -89 377q0 328 218 523q223 201 609 201q245 0 479 -89l13 -15q-34 -138 -42 -323l-9 -10h-59l-10 11q-3 121 -11 168q-125 141 -361 141q-243 0 -381 -154t-138 -418q0 -357 246 -548q131 -102 351 -102
q200 0 391 103zM1230 1549l-3 -10h-77l-263 215l-263 -215h-77l-3 10l245 356h196zM1260 1660zM887 1864z" />
    <glyph glyph-name="Ccaron" unicode="&#x10c;" horiz-adv-x="1479" 
d="M1415 175l-46 -102q-211 -116 -472 -116q-522 0 -714 376q-89 174 -89 377q0 328 218 523q223 201 609 201q245 0 479 -89l13 -15q-34 -138 -42 -323l-9 -10h-59l-10 11q-3 121 -11 168q-125 141 -361 141q-243 0 -381 -154t-138 -418q0 -357 246 -548q131 -102 351 -102
q200 0 391 103zM1230 1895l-245 -356h-196l-245 356l3 10h77l263 -215l263 215h77z" />
    <glyph glyph-name="Ccedilla" unicode="&#xc7;" horiz-adv-x="1479" 
d="M1415 175l-46 -102q-211 -116 -472 -116h-23l-46 -95q33 5 69 5q80 0 133 -34q62 -39 62 -115q0 -97 -99 -146q-78 -39 -185 -39q-98 0 -187 33l-5 16l22 51l15 5q67 -22 129 -22q40 0 69.5 24t29.5 64q0 36 -24.5 60t-63.5 24q-23 0 -55 -10l-24 18l74 165
q-433 36 -605 372q-89 174 -89 377q0 328 218 523q223 201 609 201q245 0 479 -89l13 -15q-34 -138 -42 -323l-9 -10h-59l-10 11q-3 121 -11 168q-125 141 -361 141q-243 0 -381 -154t-138 -418q0 -357 246 -548q131 -102 351 -102q200 0 391 103z" />
    <glyph glyph-name="Cdotaccent" unicode="&#x10a;" horiz-adv-x="1479" 
d="M1415 175l-46 -102q-211 -116 -472 -116q-522 0 -714 376q-89 174 -89 377q0 328 218 523q223 201 609 201q245 0 479 -89l13 -15q-34 -138 -42 -323l-9 -10h-59l-10 11q-3 121 -11 168q-125 141 -361 141q-243 0 -381 -154t-138 -418q0 -357 246 -548q131 -102 351 -102
q200 0 391 103zM1037 1722q0 -61 -42.5 -103.5t-103.5 -42.5q-60 0 -102.5 42.5t-42.5 103.5t43 104.5t102 43.5t102.5 -42.5t43.5 -105.5z" />
    <glyph glyph-name="Dcaron" unicode="&#x10e;" horiz-adv-x="1702" 
d="M1608 786q0 -339 -221 -562q-108 -109 -262 -169q-165 -65 -385 -61l-353 6q-144 2 -238 -6l-10 10v28l5 12q74 47 80 59q9 18 11 133l3 224v507q0 238 -13 310q-5 29 -34 37q-15 4 -117 10l-10 10v68l10 9q106 -6 202 -6q233 0 420 6q93 3 187 3q260 0 399 -59
q152 -65 238 -204q88 -143 88 -365zM1301 738q0 277 -134 426q-70 78 -175 110q-100 30 -279 30q-93 0 -178 -13q-10 -112 -10 -542l2 -437q1 -146 8 -194q88 -14 180 -14q199 0 314 58q124 63 197 214q75 156 75 362zM1120 1895l-245 -356h-196l-245 356l3 10h77l263 -215
l263 215h77z" />
    <glyph glyph-name="Dcroat" unicode="&#x110;" horiz-adv-x="1702" 
d="M1608 786q0 -339 -221 -562q-108 -109 -262 -169q-165 -65 -385 -61l-353 6q-144 2 -238 -6l-10 10v28l5 12q74 47 80 59q9 18 11 133l3 224v231h-164l-10 9v88l10 10h164v169q0 238 -13 310q-5 29 -34 37q-15 4 -117 10l-10 10v68l10 9q106 -6 202 -6q233 0 420 6
q93 3 187 3q260 0 399 -59q152 -65 238 -204q88 -143 88 -365zM1301 738q0 277 -134 426q-70 78 -175 110q-100 30 -279 30q-93 0 -178 -13q-10 -108 -10 -493h322l10 -10v-87l-10 -10h-322v-175l2 -204q1 -146 8 -194q88 -14 180 -14q199 0 314 58q124 63 197 214
q75 156 75 362z" />
    <glyph glyph-name="Eth" unicode="&#xd0;" horiz-adv-x="1702" 
d="M1608 786q0 -339 -221 -562q-108 -109 -262 -169q-165 -65 -385 -61l-353 6q-144 2 -238 -6l-10 10v28l5 12q74 47 80 59q9 18 11 133l3 224v231h-164l-10 9v88l10 10h164v169q0 238 -13 310q-5 29 -34 37q-15 4 -117 10l-10 10v68l10 9q106 -6 202 -6q233 0 420 6
q93 3 187 3q260 0 399 -59q152 -65 238 -204q88 -143 88 -365zM1301 738q0 277 -134 426q-70 78 -175 110q-100 30 -279 30q-93 0 -178 -13q-10 -108 -10 -493h322l10 -10v-87l-10 -10h-322v-175l2 -204q1 -146 8 -194q88 -14 180 -14q199 0 314 58q124 63 197 214
q75 156 75 362z" />
    <glyph glyph-name="Eacute" unicode="&#xc9;" horiz-adv-x="1241" 
d="M1165 334q-22 -146 -22 -330l-10 -10l-727 6q-182 0 -257 -6l-10 10v28l5 12q74 47 80 59q9 19 11 133l3 224v507q0 238 -13 310q-5 29 -34 37q-15 4 -117 10l-10 10v68l10 9q101 -6 312 -6q188 0 715 6l11 -8l-13 -111q-6 -53 -9 -90l-7 -93l-10 -11h-58l-10 10
q-1 136 -16 155q-11 14 -107.5 22t-169.5 8q-87 0 -176 -7q-11 -105 -11 -291v-207q79 -5 128 -5l131 1q92 1 104 15q16 18 21 135l10 10h62l10 -10q-4 -112 -4 -205q0 -101 4 -221l-10 -9h-67l-10 10q0 115 -16 136.5t-97 28.5q-61 5 -130 5q-73 0 -136 -5v-305
q0 -131 5 -254h136q292 0 358 23q11 4 16 11q10 14 19 60l24 124l10 11h61zM658 -78zM658 1468zM990 1875l-451 -326l-46 35v14l219 276l256 31z" />
    <glyph glyph-name="Egrave" unicode="&#xc8;" horiz-adv-x="1241" 
d="M1165 334q-22 -146 -22 -330l-10 -10l-727 6q-182 0 -257 -6l-10 10v28l5 12q74 47 80 59q9 19 11 133l3 224v507q0 238 -13 310q-5 29 -34 37q-15 4 -117 10l-10 10v68l10 9q101 -6 312 -6q188 0 715 6l11 -8l-13 -111q-6 -53 -9 -90l-7 -93l-10 -11h-58l-10 10
q-1 136 -16 155q-11 14 -107.5 22t-169.5 8q-87 0 -176 -7q-11 -105 -11 -291v-207q79 -5 128 -5l131 1q92 1 104 15q16 18 21 135l10 10h62l10 -10q-4 -112 -4 -205q0 -101 4 -221l-10 -9h-67l-10 10q0 115 -16 136.5t-97 28.5q-61 5 -130 5q-73 0 -136 -5v-305
q0 -131 5 -254h136q292 0 358 23q11 4 16 11q10 14 19 60l24 124l10 11h61zM658 -78zM658 1468zM823 1584l-46 -35l-451 326l22 30l256 -31l219 -276v-14z" />
    <glyph glyph-name="Ecircumflex" unicode="&#xca;" horiz-adv-x="1241" 
d="M1165 334q-22 -146 -22 -330l-10 -10l-727 6q-182 0 -257 -6l-10 10v28l5 12q74 47 80 59q9 19 11 133l3 224v507q0 238 -13 310q-5 29 -34 37q-15 4 -117 10l-10 10v68l10 9q101 -6 312 -6q188 0 715 6l11 -8l-13 -111q-6 -53 -9 -90l-7 -93l-10 -11h-58l-10 10
q-1 136 -16 155q-11 14 -107.5 22t-169.5 8q-87 0 -176 -7q-11 -105 -11 -291v-207q79 -5 128 -5l131 1q92 1 104 15q16 18 21 135l10 10h62l10 -10q-4 -112 -4 -205q0 -101 4 -221l-10 -9h-67l-10 10q0 115 -16 136.5t-97 28.5q-61 5 -130 5q-73 0 -136 -5v-305
q0 -131 5 -254h136q292 0 358 23q11 4 16 11q10 14 19 60l24 124l10 11h61zM658 -78zM658 1468zM1001 1549l-3 -10h-77l-263 215l-263 -215h-77l-3 10l245 356h196zM1031 1660zM658 1864z" />
    <glyph glyph-name="Edieresis" unicode="&#xcb;" horiz-adv-x="1241" 
d="M1165 334q-22 -146 -22 -330l-10 -10l-727 6q-182 0 -257 -6l-10 10v28l5 12q74 47 80 59q9 19 11 133l3 224v507q0 238 -13 310q-5 29 -34 37q-15 4 -117 10l-10 10v68l10 9q101 -6 312 -6q188 0 715 6l11 -8l-13 -111q-6 -53 -9 -90l-7 -93l-10 -11h-58l-10 10
q-1 136 -16 155q-11 14 -107.5 22t-169.5 8q-87 0 -176 -7q-11 -105 -11 -291v-207q79 -5 128 -5l131 1q92 1 104 15q16 18 21 135l10 10h62l10 -10q-4 -112 -4 -205q0 -101 4 -221l-10 -9h-67l-10 10q0 115 -16 136.5t-97 28.5q-61 5 -130 5q-73 0 -136 -5v-305
q0 -131 5 -254h136q292 0 358 23q11 4 16 11q10 14 19 60l24 124l10 11h61zM658 -78zM658 1468zM1023 1722q0 -61 -42.5 -103.5t-103.5 -42.5q-60 0 -102.5 42.5t-42.5 103.5t43 104.5t102 43.5t102.5 -42.5t43.5 -105.5zM583 1722q0 -60 -43 -103t-102 -43q-61 0 -103 42.5
t-42 103.5q0 63 43 105.5t102 42.5t102 -43.5t43 -104.5z" />
    <glyph glyph-name="Ecaron" unicode="&#x11a;" horiz-adv-x="1241" 
d="M1165 334q-22 -146 -22 -330l-10 -10l-727 6q-182 0 -257 -6l-10 10v28l5 12q74 47 80 59q9 19 11 133l3 224v507q0 238 -13 310q-5 29 -34 37q-15 4 -117 10l-10 10v68l10 9q101 -6 312 -6q188 0 715 6l11 -8l-13 -111q-6 -53 -9 -90l-7 -93l-10 -11h-58l-10 10
q-1 136 -16 155q-11 14 -107.5 22t-169.5 8q-87 0 -176 -7q-11 -105 -11 -291v-207q79 -5 128 -5l131 1q92 1 104 15q16 18 21 135l10 10h62l10 -10q-4 -112 -4 -205q0 -101 4 -221l-10 -9h-67l-10 10q0 115 -16 136.5t-97 28.5q-61 5 -130 5q-73 0 -136 -5v-305
q0 -131 5 -254h136q292 0 358 23q11 4 16 11q10 14 19 60l24 124l10 11h61zM658 -78zM658 1468zM1001 1895l-245 -356h-196l-245 356l3 10h77l263 -215l263 215h77z" />
    <glyph glyph-name="Ebreve" unicode="&#x114;" horiz-adv-x="1241" 
d="M1165 334q-22 -146 -22 -330l-10 -10l-727 6q-182 0 -257 -6l-10 10v28l5 12q74 47 80 59q9 19 11 133l3 224v507q0 238 -13 310q-5 29 -34 37q-15 4 -117 10l-10 10v68l10 9q101 -6 312 -6q188 0 715 6l11 -8l-13 -111q-6 -53 -9 -90l-7 -93l-10 -11h-58l-10 10
q-1 136 -16 155q-11 14 -107.5 22t-169.5 8q-87 0 -176 -7q-11 -105 -11 -291v-207q79 -5 128 -5l131 1q92 1 104 15q16 18 21 135l10 10h62l10 -10q-4 -112 -4 -205q0 -101 4 -221l-10 -9h-67l-10 10q0 115 -16 136.5t-97 28.5q-61 5 -130 5q-73 0 -136 -5v-305
q0 -131 5 -254h136q292 0 358 23q11 4 16 11q10 14 19 60l24 124l10 11h61zM658 -78zM658 1468zM956 1897q-7 -334 -297 -334q-291 0 -298 334l10 10h60q20 -169 228 -169t228 169h60zM662 1907z" />
    <glyph glyph-name="Edotaccent" unicode="&#x116;" horiz-adv-x="1241" 
d="M1165 334q-22 -146 -22 -330l-10 -10l-727 6q-182 0 -257 -6l-10 10v28l5 12q74 47 80 59q9 19 11 133l3 224v507q0 238 -13 310q-5 29 -34 37q-15 4 -117 10l-10 10v68l10 9q101 -6 312 -6q188 0 715 6l11 -8l-13 -111q-6 -53 -9 -90l-7 -93l-10 -11h-58l-10 10
q-1 136 -16 155q-11 14 -107.5 22t-169.5 8q-87 0 -176 -7q-11 -105 -11 -291v-207q79 -5 128 -5l131 1q92 1 104 15q16 18 21 135l10 10h62l10 -10q-4 -112 -4 -205q0 -101 4 -221l-10 -9h-67l-10 10q0 115 -16 136.5t-97 28.5q-61 5 -130 5q-73 0 -136 -5v-305
q0 -131 5 -254h136q292 0 358 23q11 4 16 11q10 14 19 60l24 124l10 11h61zM658 -78zM658 1468zM804 1722q0 -61 -42.5 -103.5t-103.5 -42.5q-60 0 -102.5 42.5t-42.5 103.5t43 104.5t102 43.5t102.5 -42.5t43.5 -105.5z" />
    <glyph glyph-name="Emacron" unicode="&#x112;" horiz-adv-x="1241" 
d="M1165 334q-22 -146 -22 -330l-10 -10l-727 6q-182 0 -257 -6l-10 10v28l5 12q74 47 80 59q9 19 11 133l3 224v507q0 238 -13 310q-5 29 -34 37q-15 4 -117 10l-10 10v68l10 9q101 -6 312 -6q188 0 715 6l11 -8l-13 -111q-6 -53 -9 -90l-7 -93l-10 -11h-58l-10 10
q-1 136 -16 155q-11 14 -107.5 22t-169.5 8q-87 0 -176 -7q-11 -105 -11 -291v-207q79 -5 128 -5l131 1q92 1 104 15q16 18 21 135l10 10h62l10 -10q-4 -112 -4 -205q0 -101 4 -221l-10 -9h-67l-10 10q0 115 -16 136.5t-97 28.5q-61 5 -130 5q-73 0 -136 -5v-305
q0 -131 5 -254h136q292 0 358 23q11 4 16 11q10 14 19 60l24 124l10 11h61zM658 -78zM658 1468zM1011 1638h-707v166h707v-166z" />
    <glyph glyph-name="Eogonek" unicode="&#x118;" horiz-adv-x="1241" 
d="M1171 -411l-4 -13q-36 -25 -84 -40q-63 -20 -129 -20q-230 0 -230 210q0 166 191 270l-509 4q-182 0 -257 -6l-10 10v28l5 12q74 47 80 59q9 19 11 133l3 224v507q0 238 -13 310q-5 29 -34 37q-15 4 -117 10l-10 10v68l10 9q101 -6 312 -6q188 0 715 6l11 -8l-13 -111
q-6 -53 -9 -90l-7 -93l-10 -11h-58l-10 10q-1 136 -16 155q-11 14 -107.5 22t-169.5 8q-87 0 -176 -7q-11 -105 -11 -291v-207q84 -5 128 -5l131 1q91 1 104 15q16 18 21 135l10 10h62l10 -10q-4 -112 -4 -205q0 -101 4 -221l-10 -9h-67l-10 10q0 115 -16 136.5t-97 28.5
q-61 5 -130 5q-73 0 -136 -5v-305q0 -131 5 -254h136q292 0 358 23q11 4 16 11q10 14 19 60l24 124l10 11h61l11 -10q-22 -146 -22 -330l-10 -10l-134 1q-113 -103 -113 -239q0 -152 136 -152q61 0 130 28l12 -8z" />
    <glyph glyph-name="uni01F4" unicode="&#x1f4;" horiz-adv-x="1706" 
d="M1608 505l-10 -11q-62 -15 -72 -41.5t-10 -202.5q0 -85 8 -168q-334 -126 -606 -126q-358 0 -579.5 200.5t-221.5 546.5q0 451 391 643q179 88 455 88q160 0 324 -35q135 -29 213 -66l9 -18q-26 -88 -43 -306l-11 -10h-60l-10 10q0 19 -4 78.5t-10 83.5q-44 60 -150 102
q-114 44 -246 44q-354 0 -489 -286q-62 -132 -62 -306q0 -278 148 -461q154 -190 401 -190q131 0 253 56q7 70 7 192q0 99 -7 120q-6 16 -38 23q-27 6 -169 15l-11 10v63l11 10q145 -4 304 -3l275 3l10 -10v-48zM1271 1875l-451 -326l-46 35v14l219 276l256 31z" />
    <glyph glyph-name="Gcircumflex" unicode="&#x11c;" horiz-adv-x="1706" 
d="M1608 505l-10 -11q-62 -15 -72 -41.5t-10 -202.5q0 -85 8 -168q-334 -126 -606 -126q-358 0 -579.5 200.5t-221.5 546.5q0 451 391 643q179 88 455 88q160 0 324 -35q135 -29 213 -66l9 -18q-26 -88 -43 -306l-11 -10h-60l-10 10q0 19 -4 78.5t-10 83.5q-44 60 -150 102
q-114 44 -246 44q-354 0 -489 -286q-62 -132 -62 -306q0 -278 148 -461q154 -190 401 -190q131 0 253 56q7 70 7 192q0 99 -7 120q-6 16 -38 23q-27 6 -169 15l-11 10v63l11 10q145 -4 304 -3l275 3l10 -10v-48zM1310 1549l-3 -10h-77l-263 215l-263 -215h-77l-3 10l245 356
h196zM1340 1660zM967 1864z" />
    <glyph glyph-name="Gbreve" unicode="&#x11e;" horiz-adv-x="1706" 
d="M1608 505l-10 -11q-62 -15 -72 -41.5t-10 -202.5q0 -85 8 -168q-334 -126 -606 -126q-358 0 -579.5 200.5t-221.5 546.5q0 451 391 643q179 88 455 88q160 0 324 -35q135 -29 213 -66l9 -18q-26 -88 -43 -306l-11 -10h-60l-10 10q0 19 -4 78.5t-10 83.5q-44 60 -150 102
q-114 44 -246 44q-354 0 -489 -286q-62 -132 -62 -306q0 -278 148 -461q154 -190 401 -190q131 0 253 56q7 70 7 192q0 99 -7 120q-6 16 -38 23q-27 6 -169 15l-11 10v63l11 10q145 -4 304 -3l275 3l10 -10v-48zM1246 1897q-7 -334 -297 -334q-291 0 -298 334l10 10h60
q20 -169 228 -169t228 169h60zM952 1907z" />
    <glyph glyph-name="Gcommaaccent" unicode="&#x122;" horiz-adv-x="1706" 
d="M1608 505l-10 -11q-62 -15 -72 -41.5t-10 -202.5q0 -85 8 -168q-334 -126 -606 -126q-358 0 -579.5 200.5t-221.5 546.5q0 451 391 643q179 88 455 88q160 0 324 -35q135 -29 213 -66l9 -18q-26 -88 -43 -306l-11 -10h-60l-10 10q0 19 -4 78.5t-10 83.5q-44 60 -150 102
q-114 44 -246 44q-354 0 -489 -286q-62 -132 -62 -306q0 -278 148 -461q154 -190 401 -190q131 0 253 56q7 70 7 192q0 99 -7 120q-6 16 -38 23q-27 6 -169 15l-11 10v63l11 10q145 -4 304 -3l275 3l10 -10v-48zM1083 -312q0 -124 -76 -203q-79 -83 -227 -98l-7 26
q201 41 201 166q0 36 -46 37q-50 2 -77 13q-79 33 -79 123q0 58 41.5 94.5t104.5 36.5q78 0 123 -55q42 -52 42 -140z" />
    <glyph glyph-name="Gdotaccent" unicode="&#x120;" horiz-adv-x="1706" 
d="M1608 505l-10 -11q-62 -15 -72 -41.5t-10 -202.5q0 -85 8 -168q-334 -126 -606 -126q-358 0 -579.5 200.5t-221.5 546.5q0 451 391 643q179 88 455 88q160 0 324 -35q135 -29 213 -66l9 -18q-26 -88 -43 -306l-11 -10h-60l-10 10q0 19 -4 78.5t-10 83.5q-44 60 -150 102
q-114 44 -246 44q-354 0 -489 -286q-62 -132 -62 -306q0 -278 148 -461q154 -190 401 -190q131 0 253 56q7 70 7 192q0 99 -7 120q-6 16 -38 23q-27 6 -169 15l-11 10v63l11 10q145 -4 304 -3l275 3l10 -10v-48zM1084 1722q0 -61 -42.5 -103.5t-103.5 -42.5
q-60 0 -102.5 42.5t-42.5 103.5t43 104.5t102 43.5t102.5 -42.5t43.5 -105.5z" />
    <glyph glyph-name="Hcircumflex" unicode="&#x124;" horiz-adv-x="1706" 
d="M1642 4l-10 -10q-99 6 -308 6q-214 0 -308 -6l-10 9v68l11 10q102 6 117 10q29 8 34 37q13 72 13 310v241q-51 5 -324 5q-252 0 -332 -5v-241q0 -238 13 -310q5 -29 34 -37q15 -4 117 -10l10 -10v-67l-9 -10q-100 6 -308 6q-215 0 -308 -6l-10 9v68l10 10q102 6 117 10
q29 8 34 37q13 72 13 310v529q0 238 -13 310q-5 29 -34 37q-15 4 -117 10l-10 10v68l10 9q96 -6 308 -6q217 0 308 6l9 -9v-69l-10 -9q-102 -6 -117 -10q-29 -8 -34 -37q-13 -72 -13 -310v-165q106 -5 292 -5q292 0 364 5v165q0 238 -13 310q-5 29 -34 37q-15 4 -117 10
l-11 10v68l10 9q97 -6 308 -6q218 0 308 6l10 -9v-69l-9 -9q-104 -6 -118 -10q-29 -8 -34 -37q-13 -72 -13 -310v-529q0 -238 13 -310q5 -29 34 -37q15 -4 117 -10l10 -10v-67zM1196 1549l-3 -10h-77l-263 215l-263 -215h-77l-3 10l245 356h196zM1226 1660zM853 1864z" />
    <glyph glyph-name="Hbar" unicode="&#x126;" horiz-adv-x="1706" 
d="M1642 4l-10 -10q-99 6 -308 6q-214 0 -308 -6l-10 9v68l11 10q102 6 117 10q29 8 34 37q13 72 13 310v241q-51 5 -324 5q-252 0 -332 -5v-241q0 -238 13 -310q5 -29 34 -37q15 -4 117 -10l10 -10v-67l-9 -10q-100 6 -308 6q-215 0 -308 -6l-10 9v68l10 10q102 6 117 10
q29 8 34 37q13 72 13 310v526h-158l-16 10v91l16 14h156q-4 159 -11 198q-5 29 -34 37q-15 4 -117 10l-10 10v68l10 9q96 -6 308 -6q217 0 308 6l9 -9v-69l-10 -9q-102 -6 -117 -10q-29 -8 -34 -37q-7 -39 -11 -199h652q-4 160 -11 199q-5 29 -34 37q-15 4 -117 10l-11 10
v68l10 9q97 -6 308 -6q218 0 308 6l10 -9v-69l-9 -9q-104 -6 -118 -10q-29 -8 -34 -37q-7 -39 -11 -198h156l16 -14v-91l-16 -10h-158v-526q0 -238 13 -310q5 -29 34 -37q15 -4 117 -10l10 -10v-67zM1181 802v163h-656v-163q106 -5 292 -5q292 0 364 5z" />
    <glyph glyph-name="Iacute" unicode="&#xcd;" horiz-adv-x="797" 
d="M716 4l-9 -10q-100 6 -309 6q-208 0 -308 -6l-9 10v67l10 10q102 6 117 10q29 8 34 37q13 72 13 310v529q0 238 -13 310q-5 29 -34 37q-15 4 -117 10l-10 10v68l10 9q96 -6 308 -6q211 0 307 6l10 -9v-68l-10 -10q-102 -6 -117 -10q-29 -8 -34 -37q-13 -72 -13 -310v-529
q0 -238 13 -310q5 -29 34 -37q15 -4 117 -10l10 -10v-67zM398 1468zM398 -78zM730 1875l-451 -326l-46 35v14l219 276l256 31z" />
    <glyph glyph-name="Igrave" unicode="&#xcc;" horiz-adv-x="797" 
d="M716 4l-9 -10q-100 6 -309 6q-208 0 -308 -6l-9 10v67l10 10q102 6 117 10q29 8 34 37q13 72 13 310v529q0 238 -13 310q-5 29 -34 37q-15 4 -117 10l-10 10v68l10 9q96 -6 308 -6q211 0 307 6l10 -9v-68l-10 -10q-102 -6 -117 -10q-29 -8 -34 -37q-13 -72 -13 -310v-529
q0 -238 13 -310q5 -29 34 -37q15 -4 117 -10l10 -10v-67zM398 1468zM398 -78zM563 1584l-46 -35l-451 326l22 30l256 -31l219 -276v-14z" />
    <glyph glyph-name="Icircumflex" unicode="&#xce;" horiz-adv-x="797" 
d="M716 4l-9 -10q-100 6 -309 6q-208 0 -308 -6l-9 10v67l10 10q102 6 117 10q29 8 34 37q13 72 13 310v529q0 238 -13 310q-5 29 -34 37q-15 4 -117 10l-10 10v68l10 9q96 -6 308 -6q211 0 307 6l10 -9v-68l-10 -10q-102 -6 -117 -10q-29 -8 -34 -37q-13 -72 -13 -310v-529
q0 -238 13 -310q5 -29 34 -37q15 -4 117 -10l10 -10v-67zM398 1468zM398 -78zM741 1549l-3 -10h-77l-263 215l-263 -215h-77l-3 10l245 356h196zM771 1660zM398 1864z" />
    <glyph glyph-name="Idieresis" unicode="&#xcf;" horiz-adv-x="797" 
d="M716 4l-9 -10q-100 6 -309 6q-208 0 -308 -6l-9 10v67l10 10q102 6 117 10q29 8 34 37q13 72 13 310v529q0 238 -13 310q-5 29 -34 37q-15 4 -117 10l-10 10v68l10 9q96 -6 308 -6q211 0 307 6l10 -9v-68l-10 -10q-102 -6 -117 -10q-29 -8 -34 -37q-13 -72 -13 -310v-529
q0 -238 13 -310q5 -29 34 -37q15 -4 117 -10l10 -10v-67zM398 1468zM398 -78zM763 1722q0 -61 -42.5 -103.5t-103.5 -42.5q-60 0 -102.5 42.5t-42.5 103.5t43 104.5t102 43.5t102.5 -42.5t43.5 -105.5zM323 1722q0 -60 -43 -103t-102 -43q-61 0 -103 42.5t-42 103.5
q0 63 43 105.5t102 42.5t102 -43.5t43 -104.5z" />
    <glyph glyph-name="Itilde" unicode="&#x128;" horiz-adv-x="797" 
d="M716 4l-9 -10q-100 6 -309 6q-208 0 -308 -6l-9 10v67l10 10q102 6 117 10q29 8 34 37q13 72 13 310v529q0 238 -13 310q-5 29 -34 37q-15 4 -117 10l-10 10v68l10 9q96 -6 308 -6q211 0 307 6l10 -9v-68l-10 -10q-102 -6 -117 -10q-29 -8 -34 -37q-13 -72 -13 -310v-529
q0 -238 13 -310q5 -29 34 -37q15 -4 117 -10l10 -10v-67zM398 1468zM398 -78zM784 1860q-21 -113 -86 -188q-66 -78 -147 -78q-55 0 -131 35q-27 13 -79 36q-20 10 -68 32q-40 18 -77 18q-80 0 -114 -114h-63l-7 10q21 113 86.5 189.5t146.5 76.5q55 0 131 -35
q27 -13 79 -36q20 -10 68 -32q40 -18 77 -18q80 0 114 114h63z" />
    <glyph glyph-name="Ibreve" unicode="&#x12c;" horiz-adv-x="797" 
d="M716 4l-9 -10q-100 6 -309 6q-208 0 -308 -6l-9 10v67l10 10q102 6 117 10q29 8 34 37q13 72 13 310v529q0 238 -13 310q-5 29 -34 37q-15 4 -117 10l-10 10v68l10 9q96 -6 308 -6q211 0 307 6l10 -9v-68l-10 -10q-102 -6 -117 -10q-29 -8 -34 -37q-13 -72 -13 -310v-529
q0 -238 13 -310q5 -29 34 -37q15 -4 117 -10l10 -10v-67zM398 1468zM398 -78zM696 1897q-7 -334 -297 -334q-291 0 -298 334l10 10h60q20 -169 228 -169t228 169h60zM402 1907z" />
    <glyph glyph-name="Idotaccent" unicode="&#x130;" horiz-adv-x="797" 
d="M716 4l-9 -10q-100 6 -309 6q-208 0 -308 -6l-9 10v67l10 10q102 6 117 10q29 8 34 37q13 72 13 310v529q0 238 -13 310q-5 29 -34 37q-15 4 -117 10l-10 10v68l10 9q96 -6 308 -6q211 0 307 6l10 -9v-68l-10 -10q-102 -6 -117 -10q-29 -8 -34 -37q-13 -72 -13 -310v-529
q0 -238 13 -310q5 -29 34 -37q15 -4 117 -10l10 -10v-67zM398 1468zM398 -78zM544 1722q0 -61 -42.5 -103.5t-103.5 -42.5q-60 0 -102.5 42.5t-42.5 103.5t43 104.5t102 43.5t102.5 -42.5t43.5 -105.5z" />
    <glyph glyph-name="Imacron" unicode="&#x12a;" horiz-adv-x="797" 
d="M716 4l-9 -10q-100 6 -309 6q-208 0 -308 -6l-9 10v67l10 10q102 6 117 10q29 8 34 37q13 72 13 310v529q0 238 -13 310q-5 29 -34 37q-15 4 -117 10l-10 10v68l10 9q96 -6 308 -6q211 0 307 6l10 -9v-68l-10 -10q-102 -6 -117 -10q-29 -8 -34 -37q-13 -72 -13 -310v-529
q0 -238 13 -310q5 -29 34 -37q15 -4 117 -10l10 -10v-67zM398 1468zM398 -78zM751 1638h-707v166h707v-166z" />
    <glyph glyph-name="Iogonek" unicode="&#x12e;" horiz-adv-x="797" 
d="M716 4l-9 -10q-85 5 -231 6q-118 -108 -118 -244q0 -152 136 -152q61 0 130 28l12 -8l7 -35l-4 -13q-36 -25 -84 -40q-63 -20 -129 -20q-230 0 -230 210q0 166 199 274q-205 0 -305 -6l-9 10v67l10 10q102 6 117 10q29 8 34 37q13 72 13 310v529q0 238 -13 310
q-5 29 -34 37q-15 4 -117 10l-10 10v68l10 9q96 -6 308 -6q211 0 307 6l10 -9v-68l-10 -10q-102 -6 -117 -10q-29 -8 -34 -37q-13 -72 -13 -310v-529q0 -238 13 -310q5 -29 34 -37q15 -4 117 -10l10 -10v-67z" />
    <glyph glyph-name="Jcircumflex" unicode="&#x134;" horiz-adv-x="797" 
d="M741 1333l-10 -9q-102 -6 -117 -10q-29 -8 -34 -37q-13 -73 -13 -310v-744q0 -201 -43 -313q-49 -128 -176 -239q-139 -122 -266 -122q-42 0 -82 15q5 75 5 185l23 14q81 -73 143 -73q86 0 96 91q13 118 13 354v832q0 237 -13 310q-5 29 -34 37q-7 2 -140 10l-10 10v68
l10 9q138 -6 330 -6q218 0 308 6l10 -9v-69zM766 1549l-3 -10h-77l-263 215l-263 -215h-77l-3 10l245 356h196zM796 1660zM423 1864z" />
    <glyph glyph-name="Kcommaaccent" unicode="&#x136;" horiz-adv-x="1576" 
d="M1548 4l-10 -10q-164 6 -227 6q-56 0 -177 -6q-23 50 -103 141l-297 339q-97 110 -209 202v-238q0 -238 13 -310q5 -29 34 -37q15 -4 117 -10l10 -10v-67l-9 -10q-100 6 -308 6q-215 0 -308 -6l-10 9v68l10 10q102 6 117 10q29 8 34 37q13 72 13 310v529q0 238 -13 310
q-5 29 -34 37q-15 4 -117 10l-10 10v68l10 9q96 -6 308 -6q217 0 308 6l9 -9v-69l-10 -9q-102 -6 -117 -10q-29 -8 -34 -37q-13 -72 -13 -310v-248q187 174 268 258l142 147q73 76 187 208v69l11 10q77 -6 151 -6q87 0 204 6l10 -10v-62l-10 -10q-116 0 -172 -37
q-81 -54 -307 -268l-202 -192q43 -58 140 -171l224 -260q249 -289 288 -307q24 -11 79 -12l10 -11v-67zM967 -312q0 -124 -76 -203q-79 -83 -227 -98l-7 26q201 41 201 166q0 36 -46 37q-50 2 -77 13q-79 33 -79 123q0 58 41.5 94.5t104.5 36.5q78 0 123 -55q42 -52 42 -140
z" />
    <glyph glyph-name="glyph76" horiz-adv-x="1576" 
d="M1548 4l-10 -10q-164 6 -227 6q-56 0 -177 -6q-23 50 -103 141l-297 339q-97 110 -209 202v-238q0 -238 13 -310q5 -29 34 -37q15 -4 117 -10l10 -10v-67l-9 -10q-100 6 -308 6q-215 0 -308 -6l-10 9v68l10 10q102 6 117 10q29 8 34 37q13 72 13 310v529q0 238 -13 310
q-5 29 -34 37q-15 4 -117 10l-10 10v68l10 9q96 -6 308 -6q217 0 308 6l9 -9v-69l-10 -9q-102 -6 -117 -10q-29 -8 -34 -37q-13 -72 -13 -310v-248q187 174 268 258l142 147q73 76 187 208v69l11 10q77 -6 151 -6q87 0 204 6l10 -10v-62l-10 -10q-116 0 -172 -37
q-81 -54 -307 -268l-202 -192q43 -58 140 -171l224 -260q249 -289 288 -307q24 -11 79 -12l10 -11v-67zM969 -282q0 -75 -72 -130t-192 -55q-98 0 -187 33l-5 16l19 43l15 5q63 -22 105 -22q55 0 91 26q40 29 40 80q0 36 -26 58.5t-63 22.5q-26 0 -55 -5l-10 10l15 47
q69 20 140 20q81 0 133 -41t52 -108z" />
    <glyph glyph-name="Lacute" unicode="&#x139;" horiz-adv-x="1241" 
d="M1165 334q-22 -146 -22 -330l-10 -10l-727 6q-182 0 -257 -6l-10 10v28l5 12q74 47 80 59q9 18 11 133l3 224v507q0 238 -13 310q-5 29 -34 37q-15 4 -117 10l-10 10v68l10 9q103 -6 302 -6q206 0 313 6l10 -9v-69l-10 -9q-102 -6 -117 -10q-29 -8 -34 -37
q-13 -72 -13 -310v-598q0 -131 5 -254h136q292 0 358 23q11 4 16 11q10 14 19 60l24 124l10 11h61zM749 1875l-451 -326l-46 35v14l219 276l256 31z" />
    <glyph glyph-name="Lcommaaccent" unicode="&#x13b;" horiz-adv-x="1241" 
d="M1165 334q-22 -146 -22 -330l-10 -10l-727 6q-182 0 -257 -6l-10 10v28l5 12q74 47 80 59q9 18 11 133l3 224v507q0 238 -13 310q-5 29 -34 37q-15 4 -117 10l-10 10v68l10 9q103 -6 302 -6q206 0 313 6l10 -9v-69l-10 -9q-102 -6 -117 -10q-29 -8 -34 -37
q-13 -72 -13 -310v-598q0 -131 5 -254h136q292 0 358 23q11 4 16 11q10 14 19 60l24 124l10 11h61zM780 -312q0 -124 -76 -203q-79 -83 -227 -98l-7 26q201 41 201 166q0 36 -46 37q-50 2 -77 13q-79 33 -79 123q0 58 41.5 94.5t104.5 36.5q78 0 123 -55q42 -52 42 -140z
" />
    <glyph glyph-name="Lcaron" unicode="&#x13d;" horiz-adv-x="1241" 
d="M1165 334q-22 -146 -22 -330l-10 -10l-727 6q-182 0 -257 -6l-10 10v28l5 12q74 47 80 59q9 18 11 133l3 224v507q0 238 -13 310q-5 29 -34 37q-15 4 -117 10l-10 10v68l10 9q103 -6 302 -6q206 0 313 6l10 -9v-69l-10 -9q-102 -6 -117 -10q-29 -8 -34 -37
q-13 -72 -13 -310v-598q0 -131 5 -254h136q292 0 358 23q11 4 16 11q10 14 19 60l24 124l10 11h61zM1120 1216q0 -124 -76 -203q-79 -83 -227 -98l-7 26q201 41 201 166q0 36 -46 37q-50 2 -77 13q-79 33 -79 123q0 58 41.5 94.5t104.5 36.5q78 0 123 -55q42 -52 42 -140z
" />
    <glyph glyph-name="glyph80" horiz-adv-x="1241" 
d="M1165 334q-22 -146 -22 -330l-10 -10l-727 6q-182 0 -257 -6l-10 10v28l5 12q74 47 80 59q9 18 11 133l3 224v507q0 238 -13 310q-5 29 -34 37q-15 4 -117 10l-10 10v68l10 9q103 -6 302 -6q206 0 313 6l10 -9v-69l-10 -9q-102 -6 -117 -10q-29 -8 -34 -37
q-13 -72 -13 -310v-598q0 -131 5 -254h136q292 0 358 23q11 4 16 11q10 14 19 60l24 124l10 11h61zM829 -282q0 -75 -72 -130t-192 -55q-98 0 -187 33l-5 16l19 43l15 5q63 -22 105 -22q55 0 91 26q40 29 40 80q0 36 -26 58.5t-63 22.5q-26 0 -55 -5l-10 10l15 47
q69 20 140 20q81 0 133 -41t52 -108z" />
    <glyph glyph-name="Ldot" unicode="&#x13f;" horiz-adv-x="1241" 
d="M1165 334q-22 -146 -22 -330l-10 -10l-727 6q-182 0 -257 -6l-10 10v28l5 12q74 47 80 59q9 18 11 133l3 224v507q0 238 -13 310q-5 29 -34 37q-15 4 -117 10l-10 10v68l10 9q103 -6 302 -6q206 0 313 6l10 -9v-69l-10 -9q-102 -6 -117 -10q-29 -8 -34 -37
q-13 -72 -13 -310v-598q0 -131 5 -254h136q292 0 358 23q11 4 16 11q10 14 19 60l24 124l10 11h61zM968 813q0 -61 -42.5 -103.5t-103.5 -42.5q-60 0 -102.5 42.5t-42.5 103.5t43 104.5t102 43.5t102.5 -42.5t43.5 -105.5z" />
    <glyph glyph-name="Lslash" unicode="&#x141;" horiz-adv-x="1241" 
d="M1165 334q-22 -146 -22 -330l-10 -10l-727 6q-182 0 -257 -6l-10 10v28l5 12q74 47 80 59q9 18 11 133l3 357l-173 -97l-15 5l-23 62l5 14l206 116v274q0 238 -13 310q-5 29 -34 37q-15 4 -117 10l-10 10v68l10 9q103 -6 302 -6q206 0 313 6l10 -9v-69l-10 -9
q-102 -6 -117 -10q-29 -8 -34 -37q-13 -72 -13 -310v-117l256 144l15 -7l22 -63l-5 -14l-288 -161v-380q0 -131 5 -254h136q292 0 358 23q11 4 16 11q10 14 19 60l24 124l10 11h61z" />
    <glyph glyph-name="Nacute" unicode="&#x143;" horiz-adv-x="1706" 
d="M1640 1334l-11 -10q-102 -6 -117 -10q-29 -8 -34 -37q-13 -72 -13 -310v-406q0 -449 13 -585l-13 -9q-113 19 -171 27q-268 301 -915 1098v-654q0 -238 13 -310q5 -29 34 -37q15 -4 117 -10l10 -10v-68l-10 -9q-115 6 -214 6q-115 0 -231 -6l-10 9v68l10 10q102 6 117 10
q29 8 34 37q13 72 13 310v529q0 238 -13 310q-5 29 -34 37q-15 4 -117 10l-10 10v68l10 9q95 -6 181 -6q135 0 224 6q360 -480 846 -1029v585q0 238 -13 310q-5 29 -34 37q-15 4 -117 10l-10 10v68l10 9q112 -6 213 -6q129 0 232 6l10 -9v-68zM1195 1875l-451 -326l-46 35
v14l219 276l256 31z" />
    <glyph glyph-name="Ntilde" unicode="&#xd1;" horiz-adv-x="1706" 
d="M1640 1334l-11 -10q-102 -6 -117 -10q-29 -8 -34 -37q-13 -72 -13 -310v-406q0 -449 13 -585l-13 -9q-113 19 -171 27q-268 301 -915 1098v-654q0 -238 13 -310q5 -29 34 -37q15 -4 117 -10l10 -10v-68l-10 -9q-115 6 -214 6q-115 0 -231 -6l-10 9v68l10 10q102 6 117 10
q29 8 34 37q13 72 13 310v529q0 238 -13 310q-5 29 -34 37q-15 4 -117 10l-10 10v68l10 9q95 -6 181 -6q135 0 224 6q360 -480 846 -1029v585q0 238 -13 310q-5 29 -34 37q-15 4 -117 10l-10 10v68l10 9q112 -6 213 -6q129 0 232 6l10 -9v-68zM1250 1860q-21 -113 -86 -188
q-66 -78 -147 -78q-55 0 -131 35q-27 13 -79 36q-20 10 -68 32q-40 18 -77 18q-80 0 -114 -114h-63l-7 10q21 113 86.5 189.5t146.5 76.5q55 0 131 -35q27 -13 79 -36q20 -10 68 -32q40 -18 77 -18q80 0 114 114h63z" />
    <glyph glyph-name="Ncaron" unicode="&#x147;" horiz-adv-x="1706" 
d="M1640 1334l-11 -10q-102 -6 -117 -10q-29 -8 -34 -37q-13 -72 -13 -310v-406q0 -449 13 -585l-13 -9q-113 19 -171 27q-268 301 -915 1098v-654q0 -238 13 -310q5 -29 34 -37q15 -4 117 -10l10 -10v-68l-10 -9q-115 6 -214 6q-115 0 -231 -6l-10 9v68l10 10q102 6 117 10
q29 8 34 37q13 72 13 310v529q0 238 -13 310q-5 29 -34 37q-15 4 -117 10l-10 10v68l10 9q95 -6 181 -6q135 0 224 6q360 -480 846 -1029v585q0 238 -13 310q-5 29 -34 37q-15 4 -117 10l-10 10v68l10 9q112 -6 213 -6q129 0 232 6l10 -9v-68zM1207 1895l-245 -356h-196
l-245 356l3 10h77l263 -215l263 215h77z" />
    <glyph glyph-name="Ncommaaccent" unicode="&#x145;" horiz-adv-x="1706" 
d="M1640 1334l-11 -10q-102 -6 -117 -10q-29 -8 -34 -37q-13 -72 -13 -310v-406q0 -449 13 -585l-13 -9q-113 19 -171 27q-268 301 -915 1098v-654q0 -238 13 -310q5 -29 34 -37q15 -4 117 -10l10 -10v-68l-10 -9q-115 6 -214 6q-115 0 -231 -6l-10 9v68l10 10q102 6 117 10
q29 8 34 37q13 72 13 310v529q0 238 -13 310q-5 29 -34 37q-15 4 -117 10l-10 10v68l10 9q95 -6 181 -6q135 0 224 6q360 -480 846 -1029v585q0 238 -13 310q-5 29 -34 37q-15 4 -117 10l-10 10v68l10 9q112 -6 213 -6q129 0 232 6l10 -9v-68zM1049 -312q0 -124 -76 -203
q-79 -83 -227 -98l-7 26q201 41 201 166q0 36 -46 37q-50 2 -77 13q-79 33 -79 123q0 58 41.5 94.5t104.5 36.5q78 0 123 -55q42 -52 42 -140z" />
    <glyph glyph-name="glyph87" horiz-adv-x="1706" 
d="M1640 1334l-11 -10q-102 -6 -117 -10q-29 -8 -34 -37q-13 -72 -13 -310v-406q0 -449 13 -585l-13 -9q-113 19 -171 27q-268 301 -915 1098v-654q0 -238 13 -310q5 -29 34 -37q15 -4 117 -10l10 -10v-68l-10 -9q-115 6 -214 6q-115 0 -231 -6l-10 9v68l10 10q102 6 117 10
q29 8 34 37q13 72 13 310v529q0 238 -13 310q-5 29 -34 37q-15 4 -117 10l-10 10v68l10 9q95 -6 181 -6q135 0 224 6q360 -480 846 -1029v585q0 238 -13 310q-5 29 -34 37q-15 4 -117 10l-10 10v68l10 9q112 -6 213 -6q129 0 232 6l10 -9v-68zM1049 -282q0 -75 -72 -130
t-192 -55q-98 0 -187 33l-5 16l19 43l15 5q63 -22 105 -22q55 0 91 26q40 29 40 80q0 36 -26 58.5t-63 22.5q-26 0 -55 -5l-10 10l15 47q69 20 140 20q81 0 133 -41t52 -108z" />
    <glyph glyph-name="Oacute" unicode="&#xd3;" horiz-adv-x="1706" 
d="M1612 739q0 -369 -215 -579q-209 -204 -571 -204q-342 0 -537 192.5t-195 535.5q0 481 367 666q167 84 411 84q349 0 543 -183q197 -186 197 -512zM1304 687q0 290 -116.5 460.5t-341.5 170.5q-297 0 -394 -267q-50 -137 -50 -307q0 -309 114 -488q118 -185 353 -185
q285 0 383 281q52 149 52 335zM847 -78zM847 1468zM1179 1875l-451 -326l-46 35v14l219 276l256 31z" />
    <glyph glyph-name="Ograve" unicode="&#xd2;" horiz-adv-x="1706" 
d="M1612 739q0 -369 -215 -579q-209 -204 -571 -204q-342 0 -537 192.5t-195 535.5q0 481 367 666q167 84 411 84q349 0 543 -183q197 -186 197 -512zM1304 687q0 290 -116.5 460.5t-341.5 170.5q-297 0 -394 -267q-50 -137 -50 -307q0 -309 114 -488q118 -185 353 -185
q285 0 383 281q52 149 52 335zM847 -78zM847 1468zM1012 1584l-46 -35l-451 326l22 30l256 -31l219 -276v-14z" />
    <glyph glyph-name="Ocircumflex" unicode="&#xd4;" horiz-adv-x="1706" 
d="M1612 739q0 -369 -215 -579q-209 -204 -571 -204q-342 0 -537 192.5t-195 535.5q0 481 367 666q167 84 411 84q349 0 543 -183q197 -186 197 -512zM1304 687q0 290 -116.5 460.5t-341.5 170.5q-297 0 -394 -267q-50 -137 -50 -307q0 -309 114 -488q118 -185 353 -185
q285 0 383 281q52 149 52 335zM847 -78zM847 1468zM1190 1549l-3 -10h-77l-263 215l-263 -215h-77l-3 10l245 356h196zM1220 1660zM847 1864z" />
    <glyph glyph-name="Odieresis" unicode="&#xd6;" horiz-adv-x="1706" 
d="M1612 739q0 -369 -215 -579q-209 -204 -571 -204q-342 0 -537 192.5t-195 535.5q0 481 367 666q167 84 411 84q349 0 543 -183q197 -186 197 -512zM1304 687q0 290 -116.5 460.5t-341.5 170.5q-297 0 -394 -267q-50 -137 -50 -307q0 -309 114 -488q118 -185 353 -185
q285 0 383 281q52 149 52 335zM847 -78zM847 1468zM1212 1722q0 -61 -42.5 -103.5t-103.5 -42.5q-60 0 -102.5 42.5t-42.5 103.5t43 104.5t102 43.5t102.5 -42.5t43.5 -105.5zM772 1722q0 -60 -43 -103t-102 -43q-61 0 -103 42.5t-42 103.5q0 63 43 105.5t102 42.5
t102 -43.5t43 -104.5z" />
    <glyph glyph-name="Otilde" unicode="&#xd5;" horiz-adv-x="1706" 
d="M1612 739q0 -369 -215 -579q-209 -204 -571 -204q-342 0 -537 192.5t-195 535.5q0 481 367 666q167 84 411 84q349 0 543 -183q197 -186 197 -512zM1304 687q0 290 -116.5 460.5t-341.5 170.5q-297 0 -394 -267q-50 -137 -50 -307q0 -309 114 -488q118 -185 353 -185
q285 0 383 281q52 149 52 335zM847 -78zM847 1468zM1233 1860q-21 -113 -86 -188q-66 -78 -147 -78q-55 0 -131 35q-27 13 -79 36q-20 10 -68 32q-40 18 -77 18q-80 0 -114 -114h-63l-7 10q21 113 86.5 189.5t146.5 76.5q55 0 131 -35q27 -13 79 -36q20 -10 68 -32
q40 -18 77 -18q80 0 114 114h63z" />
    <glyph glyph-name="Obreve" unicode="&#x14e;" horiz-adv-x="1706" 
d="M1612 739q0 -369 -215 -579q-209 -204 -571 -204q-342 0 -537 192.5t-195 535.5q0 481 367 666q167 84 411 84q349 0 543 -183q197 -186 197 -512zM1304 687q0 290 -116.5 460.5t-341.5 170.5q-297 0 -394 -267q-50 -137 -50 -307q0 -309 114 -488q118 -185 353 -185
q285 0 383 281q52 149 52 335zM847 -78zM847 1468zM1145 1897q-7 -334 -297 -334q-291 0 -298 334l10 10h60q20 -169 228 -169t228 169h60zM851 1907z" />
    <glyph glyph-name="Ohungarumlaut" unicode="&#x150;" horiz-adv-x="1706" 
d="M1612 739q0 -369 -215 -579q-209 -204 -571 -204q-342 0 -537 192.5t-195 535.5q0 481 367 666q167 84 411 84q349 0 543 -183q197 -186 197 -512zM1304 687q0 290 -116.5 460.5t-341.5 170.5q-297 0 -394 -267q-50 -137 -50 -307q0 -309 114 -488q118 -185 353 -185
q285 0 383 281q52 149 52 335zM847 -78zM847 1468zM1481 1875l-451 -326l-46 35v14l219 276l256 31zM1028 1875l-451 -326l-46 35v14l219 276l256 31z" />
    <glyph glyph-name="Omacron" unicode="&#x14c;" horiz-adv-x="1706" 
d="M1612 739q0 -369 -215 -579q-209 -204 -571 -204q-342 0 -537 192.5t-195 535.5q0 481 367 666q167 84 411 84q349 0 543 -183q197 -186 197 -512zM1304 687q0 290 -116.5 460.5t-341.5 170.5q-297 0 -394 -267q-50 -137 -50 -307q0 -309 114 -488q118 -185 353 -185
q285 0 383 281q52 149 52 335zM847 -78zM847 1468zM1200 1638h-707v166h707v-166z" />
    <glyph glyph-name="Oslash" unicode="&#xd8;" horiz-adv-x="1706" 
d="M1637 1355l-170 -159q145 -173 145 -457q0 -369 -215 -579q-209 -204 -571 -204q-318 0 -510 168l-176 -164h-15l-60 62v15l177 165q-148 185 -148 482q0 481 367 666q167 84 411 84q328 0 519 -162l174 162h15l57 -65v-14zM1213 1106q-70 126 -171 174q-80 38 -196 38
q-297 0 -394 -267q-50 -137 -50 -307q0 -202 48 -348zM1304 687q0 176 -46 315l-763 -711q66 -122 166 -175q85 -45 208 -45q285 0 383 281q52 149 52 335z" />
    <glyph glyph-name="Oslashacute" unicode="&#x1fe;" horiz-adv-x="1706" 
d="M1637 1355l-170 -159q145 -173 145 -457q0 -369 -215 -579q-209 -204 -571 -204q-318 0 -510 168l-176 -164h-15l-60 62v15l177 165q-148 185 -148 482q0 481 367 666q167 84 411 84q328 0 519 -162l174 162h15l57 -65v-14zM1213 1106q-70 126 -171 174q-80 38 -196 38
q-297 0 -394 -267q-50 -137 -50 -307q0 -202 48 -348zM1304 687q0 176 -46 315l-763 -711q66 -122 166 -175q85 -45 208 -45q285 0 383 281q52 149 52 335zM1179 1875l-451 -326l-46 35v14l219 276l256 31z" />
    <glyph glyph-name="OE" unicode="&#x152;" horiz-adv-x="2048" 
d="M1990 334q-22 -146 -22 -330l-10 -10l-638 7q-108 0 -293 -19q-165 -17 -247 -17q-327 0 -511 208q-180 203 -180 551q0 322 175 513q183 199 561 199q86 0 248 -21q128 -17 221 -15l633 11l10 -10l-13 -109q-6 -51 -9 -90l-7 -93l-10 -11h-58l-10 10q-1 136 -16 155
q-11 14 -107.5 22t-139.5 8q-87 0 -176 -7q-11 -105 -11 -291v-207q80 -5 128 -5l101 1q92 1 104 15q16 18 21 135l10 10h62l10 -10q-4 -112 -4 -205q0 -101 4 -221l-10 -9h-67l-10 10q0 115 -16 136.5t-97 28.5q-61 5 -100 5q-73 0 -136 -5v-305q0 -131 5 -254h136
q105 0 199 5q91 5 129 18q11 4 16 11q10 14 19 60l24 124l10 11h61zM1093 613v195q0 138 -9 421q-59 55 -145 77q-55 14 -121 14q-280 0 -374 -255q-49 -133 -49 -315q0 -427 199 -589q101 -82 241 -82q119 0 194 31q25 10 55 32q9 90 9 471z" />
    <glyph glyph-name="Racute" unicode="&#x154;" horiz-adv-x="1462" 
d="M1433 4l-10 -10q-7 0 -38 1q-137 5 -171 5q-51 0 -162 -6q-4 24 -38 80l-248 414l-111 169q-21 31 -59 61l11 34q23 -1 34 -1q98 0 154 31q51 28 94 98t43 167q0 169 -126 228q-60 28 -175 28q-50 0 -96 -8q-10 -98 -10 -334v-523q0 -238 13 -310q5 -29 34 -37
q15 -4 117 -10l10 -10v-67l-9 -10q-100 6 -308 6q-215 0 -308 -6l-10 9v68l10 10q102 6 117 10q29 8 34 37q13 72 13 310v529q0 238 -13 310q-5 29 -34 37q-15 4 -117 10l-10 10v68l10 9q98 -6 308 -6q122 0 198 3q151 6 226 6q173 0 254 -31q109 -42 146 -142
q18 -49 18 -116q0 -272 -306 -386l106 -170l154 -237q136 -210 181 -239q23 -15 64 -15l10 -10v-64zM963 1875l-451 -326l-46 35v14l219 276l256 31z" />
    <glyph glyph-name="Rcaron" unicode="&#x158;" horiz-adv-x="1462" 
d="M1433 4l-10 -10q-7 0 -38 1q-137 5 -171 5q-51 0 -162 -6q-4 24 -38 80l-248 414l-111 169q-21 31 -59 61l11 34q23 -1 34 -1q98 0 154 31q51 28 94 98t43 167q0 169 -126 228q-60 28 -175 28q-50 0 -96 -8q-10 -98 -10 -334v-523q0 -238 13 -310q5 -29 34 -37
q15 -4 117 -10l10 -10v-67l-9 -10q-100 6 -308 6q-215 0 -308 -6l-10 9v68l10 10q102 6 117 10q29 8 34 37q13 72 13 310v529q0 238 -13 310q-5 29 -34 37q-15 4 -117 10l-10 10v68l10 9q98 -6 308 -6q122 0 198 3q151 6 226 6q173 0 254 -31q109 -42 146 -142
q18 -49 18 -116q0 -272 -306 -386l106 -170l154 -237q136 -210 181 -239q23 -15 64 -15l10 -10v-64zM974 1895l-245 -356h-196l-245 356l3 10h77l263 -215l263 215h77z" />
    <glyph glyph-name="Rcommaaccent" unicode="&#x156;" horiz-adv-x="1462" 
d="M1433 4l-10 -10q-7 0 -38 1q-137 5 -171 5q-51 0 -162 -6q-4 24 -38 80l-248 414l-111 169q-21 31 -59 61l11 34q23 -1 34 -1q98 0 154 31q51 28 94 98t43 167q0 169 -126 228q-60 28 -175 28q-50 0 -96 -8q-10 -98 -10 -334v-523q0 -238 13 -310q5 -29 34 -37
q15 -4 117 -10l10 -10v-67l-9 -10q-100 6 -308 6q-215 0 -308 -6l-10 9v68l10 10q102 6 117 10q29 8 34 37q13 72 13 310v529q0 238 -13 310q-5 29 -34 37q-15 4 -117 10l-10 10v68l10 9q98 -6 308 -6q122 0 198 3q151 6 226 6q173 0 254 -31q109 -42 146 -142
q18 -49 18 -116q0 -272 -306 -386l106 -170l154 -237q136 -210 181 -239q23 -15 64 -15l10 -10v-64zM904 -312q0 -124 -76 -203q-79 -83 -227 -98l-7 26q201 41 201 166q0 36 -46 37q-50 2 -77 13q-79 33 -79 123q0 58 41.5 94.5t104.5 36.5q78 0 123 -55q42 -52 42 -140z
" />
    <glyph glyph-name="glyph102" horiz-adv-x="1462" 
d="M1433 4l-10 -10q-7 0 -38 1q-137 5 -171 5q-51 0 -162 -6q-4 24 -38 80l-248 414l-111 169q-21 31 -59 61l11 34q23 -1 34 -1q98 0 154 31q51 28 94 98t43 167q0 169 -126 228q-60 28 -175 28q-50 0 -96 -8q-10 -98 -10 -334v-523q0 -238 13 -310q5 -29 34 -37
q15 -4 117 -10l10 -10v-67l-9 -10q-100 6 -308 6q-215 0 -308 -6l-10 9v68l10 10q102 6 117 10q29 8 34 37q13 72 13 310v529q0 238 -13 310q-5 29 -34 37q-15 4 -117 10l-10 10v68l10 9q98 -6 308 -6q122 0 198 3q151 6 226 6q173 0 254 -31q109 -42 146 -142
q18 -49 18 -116q0 -272 -306 -386l106 -170l154 -237q136 -210 181 -239q23 -15 64 -15l10 -10v-64zM919 -282q0 -75 -72 -130t-192 -55q-98 0 -187 33l-5 16l19 43l15 5q63 -22 105 -22q55 0 91 26q40 29 40 80q0 36 -26 58.5t-63 22.5q-26 0 -55 -5l-10 10l15 47
q69 20 140 20q81 0 133 -41t52 -108z" />
    <glyph glyph-name="Sacute" unicode="&#x15a;" horiz-adv-x="1251" 
d="M1144 462q0 -165 -94 -291q-82 -111 -215 -165q-122 -50 -291 -50q-210 0 -412 96l-12 22q28 115 28 327l10 10h64l9 -10v-23q0 -56 12 -148q36 -64 129 -110q97 -48 202 -48q198 0 274 138q39 71 39 147q0 128 -107 183q-53 27 -171 45q-267 41 -351 103
q-127 94 -127 291q0 205 138 327q146 128 406 128q234 0 378 -75l7 -24q-24 -119 -29 -286l-11 -10h-63l-10 10q-3 120 -10 156q-31 47 -108 80q-82 34 -171 34q-134 0 -212 -71q-73 -67 -73 -173q0 -115 83 -169q54 -35 255 -67q21 -3 117 -20q59 -10 109 -29
q101 -38 152 -116q55 -85 55 -212zM957 1875l-451 -326l-46 35v14l219 276l256 31z" />
    <glyph glyph-name="Scircumflex" unicode="&#x15c;" horiz-adv-x="1251" 
d="M1144 462q0 -165 -94 -291q-82 -111 -215 -165q-122 -50 -291 -50q-210 0 -412 96l-12 22q28 115 28 327l10 10h64l9 -10v-23q0 -56 12 -148q36 -64 129 -110q97 -48 202 -48q198 0 274 138q39 71 39 147q0 128 -107 183q-53 27 -171 45q-267 41 -351 103
q-127 94 -127 291q0 205 138 327q146 128 406 128q234 0 378 -75l7 -24q-24 -119 -29 -286l-11 -10h-63l-10 10q-3 120 -10 156q-31 47 -108 80q-82 34 -171 34q-134 0 -212 -71q-73 -67 -73 -173q0 -115 83 -169q54 -35 255 -67q21 -3 117 -20q59 -10 109 -29
q101 -38 152 -116q55 -85 55 -212zM968 1549l-3 -10h-77l-263 215l-263 -215h-77l-3 10l245 356h196zM998 1660zM625 1864z" />
    <glyph glyph-name="Scaron" unicode="&#x160;" horiz-adv-x="1251" 
d="M1144 462q0 -165 -94 -291q-82 -111 -215 -165q-122 -50 -291 -50q-210 0 -412 96l-12 22q28 115 28 327l10 10h64l9 -10v-23q0 -56 12 -148q36 -64 129 -110q97 -48 202 -48q198 0 274 138q39 71 39 147q0 128 -107 183q-53 27 -171 45q-267 41 -351 103
q-127 94 -127 291q0 205 138 327q146 128 406 128q234 0 378 -75l7 -24q-24 -119 -29 -286l-11 -10h-63l-10 10q-3 120 -10 156q-31 47 -108 80q-82 34 -171 34q-134 0 -212 -71q-73 -67 -73 -173q0 -115 83 -169q54 -35 255 -67q21 -3 117 -20q59 -10 109 -29
q101 -38 152 -116q55 -85 55 -212zM968 1895l-245 -356h-196l-245 356l3 10h77l263 -215l263 215h77z" />
    <glyph glyph-name="Scommaaccent" unicode="&#x218;" horiz-adv-x="1251" 
d="M1144 462q0 -165 -94 -291q-82 -111 -215 -165q-122 -50 -291 -50q-210 0 -412 96l-12 22q28 115 28 327l10 10h64l9 -10v-23q0 -56 12 -148q36 -64 129 -110q97 -48 202 -48q198 0 274 138q39 71 39 147q0 128 -107 183q-53 27 -171 45q-267 41 -351 103
q-127 94 -127 291q0 205 138 327q146 128 406 128q234 0 378 -75l7 -24q-24 -119 -29 -286l-11 -10h-63l-10 10q-3 120 -10 156q-31 47 -108 80q-82 34 -171 34q-134 0 -212 -71q-73 -67 -73 -173q0 -115 83 -169q54 -35 255 -67q21 -3 117 -20q59 -10 109 -29
q101 -38 152 -116q55 -85 55 -212zM763 -312q0 -124 -76 -203q-79 -83 -227 -98l-7 26q201 41 201 166q0 36 -46 37q-50 2 -77 13q-79 33 -79 123q0 58 41.5 94.5t104.5 36.5q78 0 123 -55q42 -52 42 -140z" />
    <glyph glyph-name="Scedilla" unicode="&#x15e;" horiz-adv-x="1251" 
d="M1144 462q0 -165 -94 -291q-82 -111 -215 -165q-88 -36 -200 -46l-47 -98q33 5 69 5q80 0 133 -34q62 -39 62 -115q0 -97 -99 -146q-78 -39 -185 -39q-98 0 -187 33l-5 16l22 51l15 5q67 -22 129 -22q40 0 69.5 24t29.5 64q0 36 -24.5 60t-63.5 24q-23 0 -55 -10l-24 18
l71 160h-1q-210 0 -412 96l-12 22q28 115 28 327l10 10h64l9 -10v-23q0 -56 12 -148q36 -64 129 -110q97 -48 202 -48q198 0 274 138q39 71 39 147q0 128 -107 183q-53 27 -171 45q-267 41 -351 103q-127 94 -127 291q0 205 138 327q146 128 406 128q234 0 378 -75l7 -24
q-24 -119 -29 -286l-11 -10h-63l-10 10q-3 120 -10 156q-37 55 -108 80q-82 34 -171 34q-134 0 -212 -71q-73 -67 -73 -173q0 -115 83 -169q54 -35 255 -67l117 -20q59 -10 109 -29q101 -38 152 -116q55 -85 55 -212z" />
    <glyph glyph-name="uni021A" unicode="&#x21a;" horiz-adv-x="1366" 
d="M1325 1405q-12 -74 -13 -153l-2 -167l-10 -10h-63l-11 9q-5 128 -11 150q-12 40 -64 47q-20 3 -188 3h-134q-2 -35 -2 -278v-568q0 -238 13 -310q5 -29 34 -37q15 -4 117 -10l10 -10v-67l-10 -10q-99 6 -308 6q-214 0 -308 -6l-9 9v68l10 10q102 6 117 10q29 8 34 37
q13 72 13 310v568q0 247 -3 278h-143q-179 0 -209 -11q-16 -6 -22 -15q-9 -16 -15 -64q-7 -53 -9 -109l-10 -10h-63l-11 10l-2 171q-1 72 -12 149l9 10q59 -10 430 -10h405q342 0 430 10zM839 -312q0 -124 -76 -203q-79 -83 -227 -98l-7 26q201 41 201 166q0 36 -46 37
q-50 2 -77 13q-79 33 -79 123q0 58 41.5 94.5t104.5 36.5q78 0 123 -55q42 -52 42 -140z" />
    <glyph glyph-name="Tcaron" unicode="&#x164;" horiz-adv-x="1366" 
d="M1325 1405q-12 -74 -13 -153l-2 -167l-10 -10h-63l-11 9q-5 128 -11 150q-12 40 -64 47q-20 3 -188 3h-134q-2 -35 -2 -278v-568q0 -238 13 -310q5 -29 34 -37q15 -4 117 -10l10 -10v-67l-10 -10q-99 6 -308 6q-214 0 -308 -6l-9 9v68l10 10q102 6 117 10q29 8 34 37
q13 72 13 310v568q0 247 -3 278h-143q-179 0 -209 -11q-16 -6 -22 -15q-9 -16 -15 -64q-7 -53 -9 -109l-10 -10h-63l-11 10l-2 171q-1 72 -12 149l9 10q59 -10 430 -10h405q342 0 430 10zM1027 1895l-245 -356h-196l-245 356l3 10h77l263 -215l263 215h77z" />
    <glyph glyph-name="glyph110" horiz-adv-x="1810" 
d="M1325 1405q-12 -74 -13 -153l-2 -167l-10 -10h-63l-11 9q-5 128 -11 150q-12 40 -64 47q-20 3 -188 3h-134q-2 -35 -2 -278v-568q0 -238 13 -310q5 -29 34 -37q15 -4 117 -10l10 -10v-67l-10 -10q-99 6 -308 6q-214 0 -308 -6l-9 9v68l10 10q102 6 117 10q29 8 34 37
q13 72 13 310v568q0 247 -3 278h-143q-179 0 -209 -11q-16 -6 -22 -15q-9 -16 -15 -64q-7 -53 -9 -109l-10 -10h-63l-11 10l-2 171q-1 72 -12 149l9 10q59 -10 430 -10h405q342 0 430 10zM1755 1216q0 -124 -76 -203q-79 -83 -227 -98l-7 26q201 41 201 166q0 36 -46 37
q-50 2 -77 13q-79 33 -79 123q0 58 41.5 94.5t104.5 36.5q78 0 123 -55q42 -52 42 -140z" />
    <glyph glyph-name="Tcommaaccent" unicode="&#x162;" horiz-adv-x="1366" 
d="M1325 1405q-12 -74 -13 -153l-2 -167l-10 -10h-63l-11 9q-5 128 -11 150q-12 40 -64 47q-20 3 -188 3h-134q-2 -35 -2 -278v-568q0 -238 13 -310q5 -29 34 -37q15 -4 117 -10l10 -10v-67l-10 -10q-99 6 -308 6q-214 0 -308 -6l-9 9v68l10 10q102 6 117 10q29 8 34 37
q13 72 13 310v568q0 247 -3 278h-143q-179 0 -209 -11q-16 -6 -22 -15q-9 -16 -15 -64q-7 -53 -9 -109l-10 -10h-63l-11 10l-2 171q-1 72 -12 149l9 10q59 -10 430 -10h405q342 0 430 10zM892 -282q0 -75 -72 -130t-192 -55q-98 0 -187 33l-5 16l19 43l15 5q63 -22 105 -22
q55 0 91 26q40 29 40 80q0 36 -26 58.5t-63 22.5q-26 0 -55 -5l-10 10l15 47q69 20 140 20q81 0 133 -41t52 -108z" />
    <glyph glyph-name="Tbar" unicode="&#x166;" horiz-adv-x="1366" 
d="M1325 1405q-12 -74 -13 -153l-2 -167l-10 -10h-63l-11 9q-5 128 -11 150q-12 40 -64 47q-20 3 -188 3h-134q-2 -35 -2 -278v-132h397l16 -14v-91l-16 -11h-397v-320q0 -238 13 -310q5 -29 34 -37q15 -4 117 -10l10 -10v-67l-10 -10q-99 6 -308 6q-214 0 -308 -6l-9 9v68
l10 10q102 6 117 10q29 8 34 37q13 72 13 310v320h-396l-15 11v91l15 14h396v132q0 247 -3 278h-143q-179 0 -209 -11q-16 -6 -22 -15q-9 -16 -15 -64q-7 -53 -9 -109l-10 -10h-63l-11 10l-2 171q-1 72 -12 149l9 10q59 -10 430 -10h405q342 0 430 10z" />
    <glyph glyph-name="Uacute" unicode="&#xda;" horiz-adv-x="1593" 
d="M1540 1334l-10 -10q-118 0 -133 -63q-8 -35 -12 -152q-3 -87 -3 -251v-308q0 -297 -117 -424q-155 -168 -442 -168q-262 0 -409 87q-124 74 -162 210q-24 87 -24 454v258q0 238 -13 310q-5 29 -34 37q-15 4 -117 10l-10 10v67l10 10q96 -6 308 -6q216 0 307 6l10 -10v-67
l-10 -10q-102 -6 -117 -10q-29 -8 -34 -37q-13 -72 -13 -310v-206q0 -378 34 -463q68 -168 335 -168q175 0 273 86q46 41 64 83t28 130q9 82 9 166v208q0 262 -2 358q-2 90 -12 117q-8 20 -35 31q-23 9 -123 15l-10 10v67l10 10q87 -6 179 -6q69 0 265 6l10 -10v-67z
M823 1468zM823 -78zM1155 1875l-451 -326l-46 35v14l219 276l256 31z" />
    <glyph glyph-name="Ugrave" unicode="&#xd9;" horiz-adv-x="1593" 
d="M1540 1334l-10 -10q-118 0 -133 -63q-8 -35 -12 -152q-3 -87 -3 -251v-308q0 -297 -117 -424q-155 -168 -442 -168q-262 0 -409 87q-124 74 -162 210q-24 87 -24 454v258q0 238 -13 310q-5 29 -34 37q-15 4 -117 10l-10 10v67l10 10q96 -6 308 -6q216 0 307 6l10 -10v-67
l-10 -10q-102 -6 -117 -10q-29 -8 -34 -37q-13 -72 -13 -310v-206q0 -378 34 -463q68 -168 335 -168q175 0 273 86q46 41 64 83t28 130q9 82 9 166v208q0 262 -2 358q-2 90 -12 117q-8 20 -35 31q-23 9 -123 15l-10 10v67l10 10q87 -6 179 -6q69 0 265 6l10 -10v-67z
M823 1468zM823 -78zM988 1584l-46 -35l-451 326l22 30l256 -31l219 -276v-14z" />
    <glyph glyph-name="Ucircumflex" unicode="&#xdb;" horiz-adv-x="1593" 
d="M1540 1334l-10 -10q-118 0 -133 -63q-8 -35 -12 -152q-3 -87 -3 -251v-308q0 -297 -117 -424q-155 -168 -442 -168q-262 0 -409 87q-124 74 -162 210q-24 87 -24 454v258q0 238 -13 310q-5 29 -34 37q-15 4 -117 10l-10 10v67l10 10q96 -6 308 -6q216 0 307 6l10 -10v-67
l-10 -10q-102 -6 -117 -10q-29 -8 -34 -37q-13 -72 -13 -310v-206q0 -378 34 -463q68 -168 335 -168q175 0 273 86q46 41 64 83t28 130q9 82 9 166v208q0 262 -2 358q-2 90 -12 117q-8 20 -35 31q-23 9 -123 15l-10 10v67l10 10q87 -6 179 -6q69 0 265 6l10 -10v-67z
M823 1468zM823 -78zM1166 1549l-3 -10h-77l-263 215l-263 -215h-77l-3 10l245 356h196zM1196 1660zM823 1864z" />
    <glyph glyph-name="Udieresis" unicode="&#xdc;" horiz-adv-x="1593" 
d="M1540 1334l-10 -10q-118 0 -133 -63q-8 -35 -12 -152q-3 -87 -3 -251v-308q0 -297 -117 -424q-155 -168 -442 -168q-262 0 -409 87q-124 74 -162 210q-24 87 -24 454v258q0 238 -13 310q-5 29 -34 37q-15 4 -117 10l-10 10v67l10 10q96 -6 308 -6q216 0 307 6l10 -10v-67
l-10 -10q-102 -6 -117 -10q-29 -8 -34 -37q-13 -72 -13 -310v-206q0 -378 34 -463q68 -168 335 -168q175 0 273 86q46 41 64 83t28 130q9 82 9 166v208q0 262 -2 358q-2 90 -12 117q-8 20 -35 31q-23 9 -123 15l-10 10v67l10 10q87 -6 179 -6q69 0 265 6l10 -10v-67z
M823 1468zM823 -78zM1188 1722q0 -61 -42.5 -103.5t-103.5 -42.5q-60 0 -102.5 42.5t-42.5 103.5t43 104.5t102 43.5t102.5 -42.5t43.5 -105.5zM748 1722q0 -60 -43 -103t-102 -43q-61 0 -103 42.5t-42 103.5q0 63 43 105.5t102 42.5t102 -43.5t43 -104.5z" />
    <glyph glyph-name="Utilde" unicode="&#x168;" horiz-adv-x="1593" 
d="M1540 1334l-10 -10q-118 0 -133 -63q-8 -35 -12 -152q-3 -87 -3 -251v-308q0 -297 -117 -424q-155 -168 -442 -168q-262 0 -409 87q-124 74 -162 210q-24 87 -24 454v258q0 238 -13 310q-5 29 -34 37q-15 4 -117 10l-10 10v67l10 10q96 -6 308 -6q216 0 307 6l10 -10v-67
l-10 -10q-102 -6 -117 -10q-29 -8 -34 -37q-13 -72 -13 -310v-206q0 -378 34 -463q68 -168 335 -168q175 0 273 86q46 41 64 83t28 130q9 82 9 166v208q0 262 -2 358q-2 90 -12 117q-8 20 -35 31q-23 9 -123 15l-10 10v67l10 10q87 -6 179 -6q69 0 265 6l10 -10v-67z
M823 1468zM823 -78zM1209 1860q-21 -113 -86 -188q-66 -78 -147 -78q-55 0 -131 35q-27 13 -79 36q-20 10 -68 32q-40 18 -77 18q-80 0 -114 -114h-63l-7 10q21 113 86.5 189.5t146.5 76.5q55 0 131 -35q27 -13 79 -36q20 -10 68 -32q40 -18 77 -18q80 0 114 114h63z" />
    <glyph glyph-name="Ubreve" unicode="&#x16c;" horiz-adv-x="1593" 
d="M1540 1334l-10 -10q-118 0 -133 -63q-8 -35 -12 -152q-3 -87 -3 -251v-308q0 -297 -117 -424q-155 -168 -442 -168q-262 0 -409 87q-124 74 -162 210q-24 87 -24 454v258q0 238 -13 310q-5 29 -34 37q-15 4 -117 10l-10 10v67l10 10q96 -6 308 -6q216 0 307 6l10 -10v-67
l-10 -10q-102 -6 -117 -10q-29 -8 -34 -37q-13 -72 -13 -310v-206q0 -378 34 -463q68 -168 335 -168q175 0 273 86q46 41 64 83t28 130q9 82 9 166v208q0 262 -2 358q-2 90 -12 117q-8 20 -35 31q-23 9 -123 15l-10 10v67l10 10q87 -6 179 -6q69 0 265 6l10 -10v-67z
M823 1468zM823 -78zM1121 1897q-7 -334 -297 -334q-291 0 -298 334l10 10h60q20 -169 228 -169t228 169h60zM827 1907z" />
    <glyph glyph-name="Uring" unicode="&#x16e;" horiz-adv-x="1593" 
d="M1540 1334l-10 -10q-118 0 -133 -63q-8 -35 -12 -152q-3 -87 -3 -251v-308q0 -297 -117 -424q-155 -168 -442 -168q-262 0 -409 87q-124 74 -162 210q-24 87 -24 454v258q0 238 -13 310q-5 29 -34 37q-15 4 -117 10l-10 10v67l10 10q96 -6 308 -6q216 0 307 6l10 -10v-67
l-10 -10q-102 -6 -117 -10q-29 -8 -34 -37q-13 -72 -13 -310v-206q0 -378 34 -463q68 -168 335 -168q175 0 273 86q46 41 64 83t28 130q9 82 9 166v208q0 262 -2 358q-2 90 -12 117q-8 20 -35 31q-23 9 -123 15l-10 10v67l10 10q87 -6 179 -6q69 0 265 6l10 -10v-67z
M823 1468zM823 -78zM1045 1729q0 -89 -64 -146t-158 -57t-158 57t-64 146q0 88 64.5 144.5t157.5 56.5q94 0 158 -57t64 -144zM936 1729q0 54 -26 92q-31 44 -87 44t-86 -44q-26 -38 -26 -92t26 -92q30 -45 86 -45t87 45q26 38 26 92z" />
    <glyph glyph-name="Uhungarumlaut" unicode="&#x170;" horiz-adv-x="1593" 
d="M1540 1334l-10 -10q-118 0 -133 -63q-8 -35 -12 -152q-3 -87 -3 -251v-308q0 -297 -117 -424q-155 -168 -442 -168q-262 0 -409 87q-124 74 -162 210q-24 87 -24 454v258q0 238 -13 310q-5 29 -34 37q-15 4 -117 10l-10 10v67l10 10q96 -6 308 -6q216 0 307 6l10 -10v-67
l-10 -10q-102 -6 -117 -10q-29 -8 -34 -37q-13 -72 -13 -310v-206q0 -378 34 -463q68 -168 335 -168q175 0 273 86q46 41 64 83t28 130q9 82 9 166v208q0 262 -2 358q-2 90 -12 117q-8 20 -35 31q-23 9 -123 15l-10 10v67l10 10q87 -6 179 -6q69 0 265 6l10 -10v-67z
M823 1468zM823 -78zM1457 1875l-451 -326l-46 35v14l219 276l256 31zM1004 1875l-451 -326l-46 35v14l219 276l256 31z" />
    <glyph glyph-name="Umacron" unicode="&#x16a;" horiz-adv-x="1593" 
d="M1540 1334l-10 -10q-118 0 -133 -63q-8 -35 -12 -152q-3 -87 -3 -251v-308q0 -297 -117 -424q-155 -168 -442 -168q-262 0 -409 87q-124 74 -162 210q-24 87 -24 454v258q0 238 -13 310q-5 29 -34 37q-15 4 -117 10l-10 10v67l10 10q96 -6 308 -6q216 0 307 6l10 -10v-67
l-10 -10q-102 -6 -117 -10q-29 -8 -34 -37q-13 -72 -13 -310v-206q0 -378 34 -463q68 -168 335 -168q175 0 273 86q46 41 64 83t28 130q9 82 9 166v208q0 262 -2 358q-2 90 -12 117q-8 20 -35 31q-23 9 -123 15l-10 10v67l10 10q87 -6 179 -6q69 0 265 6l10 -10v-67z
M823 1468zM823 -78zM1176 1638h-707v166h707v-166z" />
    <glyph glyph-name="Uogonek" unicode="&#x172;" horiz-adv-x="1593" 
d="M1540 1334l-10 -10q-118 0 -133 -63q-8 -34 -12 -152q-3 -87 -3 -251v-308q0 -297 -117 -424q-139 -151 -387 -166q-79 -93 -79 -204q0 -152 136 -152q61 0 130 28l12 -8l7 -35l-4 -13q-36 -25 -84 -40q-63 -20 -129 -20q-230 0 -230 210q0 136 133 233q-440 16 -518 296
q-24 86 -24 454v258q0 237 -13 310q-5 29 -34 37q-15 4 -117 10l-10 10v67l10 10q96 -6 308 -6q216 0 307 6l10 -10v-67l-10 -10q-102 -6 -117 -10q-29 -8 -34 -37q-13 -73 -13 -310v-206q0 -379 34 -463q68 -168 335 -168q175 0 273 86q46 41 64 83t28 130q9 81 9 166v208
q0 262 -2 358q-2 90 -12 117q-8 20 -35 31q-22 9 -123 15l-10 10v67l10 10q87 -6 179 -6q69 0 265 6l10 -10v-67z" />
    <glyph glyph-name="Wacute" unicode="&#x1e82;" horiz-adv-x="2048" 
d="M2036 1336l-10 -9q-47 -2 -54 -3q-33 -6 -49 -22.5t-28 -50.5q-24 -66 -89 -296q-33 -116 -93 -348l-90 -346q-56 -214 -63 -274h-153l-51 138l-234 612l-57 143l-39 104l-261 -619l-109 -268l-44 -110h-146l-247 1147q-19 88 -28 115q-20 63 -57 71q-17 4 -78 8l-10 9
v63l11 11q177 -6 268 -6q108 0 316 6l11 -10v-64l-10 -9q-68 -3 -77 -4q-38 -4 -50 -15.5t-12 -36.5q0 -23 19 -125l34 -183q15 -79 53 -255l59 -271l126 303l114 271l118 286q33 79 52 131h92q102 -288 380 -978l177 709q20 85 20 106q0 45 -47 52q-17 3 -107 9l-10 10v63
l11 11q172 -7 200 -6l232 6l10 -10v-65zM1436 1875l-451 -326l-46 35v14l219 276l256 31z" />
    <glyph glyph-name="Wgrave" unicode="&#x1e80;" horiz-adv-x="2048" 
d="M2036 1336l-10 -9q-47 -2 -54 -3q-33 -6 -49 -22.5t-28 -50.5q-24 -66 -89 -296q-33 -116 -93 -348l-90 -346q-56 -214 -63 -274h-153l-51 138l-234 612l-57 143l-39 104l-261 -619l-109 -268l-44 -110h-146l-247 1147q-19 88 -28 115q-20 63 -57 71q-17 4 -78 8l-10 9
v63l11 11q177 -6 268 -6q108 0 316 6l11 -10v-64l-10 -9q-68 -3 -77 -4q-38 -4 -50 -15.5t-12 -36.5q0 -23 19 -125l34 -183q15 -79 53 -255l59 -271l126 303l114 271l118 286q33 79 52 131h92q102 -288 380 -978l177 709q20 85 20 106q0 45 -47 52q-17 3 -107 9l-10 10v63
l11 11q172 -7 200 -6l232 6l10 -10v-65zM1269 1584l-46 -35l-451 326l22 30l256 -31l219 -276v-14z" />
    <glyph glyph-name="Wcircumflex" unicode="&#x174;" horiz-adv-x="2048" 
d="M2036 1336l-10 -9q-47 -2 -54 -3q-33 -6 -49 -22.5t-28 -50.5q-24 -66 -89 -296q-33 -116 -93 -348l-90 -346q-56 -214 -63 -274h-153l-51 138l-234 612l-57 143l-39 104l-261 -619l-109 -268l-44 -110h-146l-247 1147q-19 88 -28 115q-20 63 -57 71q-17 4 -78 8l-10 9
v63l11 11q177 -6 268 -6q108 0 316 6l11 -10v-64l-10 -9q-68 -3 -77 -4q-38 -4 -50 -15.5t-12 -36.5q0 -23 19 -125l34 -183q15 -79 53 -255l59 -271l126 303l114 271l118 286q33 79 52 131h92q102 -288 380 -978l177 709q20 85 20 106q0 45 -47 52q-17 3 -107 9l-10 10v63
l11 11q172 -7 200 -6l232 6l10 -10v-65zM1450 1549l-3 -10h-77l-263 215l-263 -215h-77l-3 10l245 356h196zM1480 1660zM1107 1864z" />
    <glyph glyph-name="Wdieresis" unicode="&#x1e84;" horiz-adv-x="2048" 
d="M2036 1336l-10 -9q-47 -2 -54 -3q-33 -6 -49 -22.5t-28 -50.5q-24 -66 -89 -296q-33 -116 -93 -348l-90 -346q-56 -214 -63 -274h-153l-51 138l-234 612l-57 143l-39 104l-261 -619l-109 -268l-44 -110h-146l-247 1147q-19 88 -28 115q-20 63 -57 71q-17 4 -78 8l-10 9
v63l11 11q177 -6 268 -6q108 0 316 6l11 -10v-64l-10 -9q-68 -3 -77 -4q-38 -4 -50 -15.5t-12 -36.5q0 -23 19 -125l34 -183q15 -79 53 -255l59 -271l126 303l114 271l118 286q33 79 52 131h92q102 -288 380 -978l177 709q20 85 20 106q0 45 -47 52q-17 3 -107 9l-10 10v63
l11 11q172 -7 200 -6l232 6l10 -10v-65zM1472 1722q0 -61 -42.5 -103.5t-103.5 -42.5q-60 0 -102.5 42.5t-42.5 103.5t43 104.5t102 43.5t102.5 -42.5t43.5 -105.5zM1032 1722q0 -60 -43 -103t-102 -43q-61 0 -103 42.5t-42 103.5q0 63 43 105.5t102 42.5t102 -43.5
t43 -104.5z" />
    <glyph glyph-name="Yacute" unicode="&#xdd;" horiz-adv-x="1366" 
d="M1349 1364q-158 -215 -346 -527q-106 -176 -117 -225q-6 -26 -6 -75v-99q0 -293 18 -326q8 -14 23 -18q25 -7 123 -13l10 -10v-67l-10 -10q-99 6 -308 6q-214 0 -308 -6l-9 9v68l10 10q98 6 123 13q15 4 23 18q18 33 18 326v118q0 38 -157 304q-160 271 -255 368
q-46 47 -62 53.5t-75 6.5l-11 11v56l10 11q244 48 313 68q52 -25 93 -65q85 -83 228 -370l131 -262q59 95 225 382l111 199l49 91h146l10 -10v-35zM736 -78zM736 1468zM1078 1875l-451 -326l-46 35v14l219 276l256 31z" />
    <glyph glyph-name="Ygrave" unicode="&#x1ef2;" horiz-adv-x="1366" 
d="M1349 1364q-158 -215 -346 -527q-106 -176 -117 -225q-6 -26 -6 -75v-99q0 -293 18 -326q8 -14 23 -18q25 -7 123 -13l10 -10v-67l-10 -10q-99 6 -308 6q-214 0 -308 -6l-9 9v68l10 10q98 6 123 13q15 4 23 18q18 33 18 326v118q0 38 -157 304q-160 271 -255 368
q-46 47 -62 53.5t-75 6.5l-11 11v56l10 11q244 48 313 68q52 -25 93 -65q85 -83 228 -370l131 -262q59 95 225 382l111 199l49 91h146l10 -10v-35zM736 -78zM736 1468zM911 1584l-46 -35l-451 326l22 30l256 -31l219 -276v-14z" />
    <glyph glyph-name="Ycircumflex" unicode="&#x176;" horiz-adv-x="1366" 
d="M1349 1364q-158 -215 -346 -527q-106 -176 -117 -225q-6 -26 -6 -75v-99q0 -293 18 -326q8 -14 23 -18q25 -7 123 -13l10 -10v-67l-10 -10q-99 6 -308 6q-214 0 -308 -6l-9 9v68l10 10q98 6 123 13q15 4 23 18q18 33 18 326v118q0 38 -157 304q-160 271 -255 368
q-46 47 -62 53.5t-75 6.5l-11 11v56l10 11q244 48 313 68q52 -25 93 -65q85 -83 228 -370l131 -262q59 95 225 382l111 199l49 91h146l10 -10v-35zM736 -78zM736 1468zM1089 1549l-3 -10h-77l-263 215l-263 -215h-77l-3 10l245 356h196zM1119 1660zM746 1864z" />
    <glyph glyph-name="Ydieresis" unicode="&#x178;" horiz-adv-x="1366" 
d="M1349 1364q-158 -215 -346 -527q-106 -176 -117 -225q-6 -26 -6 -75v-99q0 -293 18 -326q8 -14 23 -18q25 -7 123 -13l10 -10v-67l-10 -10q-99 6 -308 6q-214 0 -308 -6l-9 9v68l10 10q98 6 123 13q15 4 23 18q18 33 18 326v118q0 38 -157 304q-160 271 -255 368
q-46 47 -62 53.5t-75 6.5l-11 11v56l10 11q244 48 313 68q52 -25 93 -65q85 -83 228 -370l131 -262q59 95 225 382l111 199l49 91h146l10 -10v-35zM736 -78zM736 1468zM1111 1722q0 -61 -42.5 -103.5t-103.5 -42.5q-60 0 -102.5 42.5t-42.5 103.5t43 104.5t102 43.5
t102.5 -42.5t43.5 -105.5zM671 1722q0 -60 -43 -103t-102 -43q-61 0 -103 42.5t-42 103.5q0 63 43 105.5t102 42.5t102 -43.5t43 -104.5z" />
    <glyph glyph-name="Zacute" unicode="&#x179;" horiz-adv-x="1366" 
d="M1281 347q-21 -182 -32 -344l-10 -9q-411 8 -624 8q-156 0 -553 -8l-10 9v70q74 93 226 309l146 208l187 275l278 421l-251 -1q-291 -1 -335 -14q-26 -7 -36 -40q-4 -13 -17 -93l-8 -50l-11 -10h-61l-10 12q7 106 7 191q0 27 -2 120l10 10q136 -6 606 -6q111 0 483 6
l10 -10v-60l-82 -115l-222 -314l-296 -434l-233 -358q53 -2 161 -2q507 0 540 28q18 15 46 154q6 29 11 48l11 10h60zM1057 1875l-451 -326l-46 35v14l219 276l256 31z" />
    <glyph glyph-name="Zcaron" unicode="&#x17d;" horiz-adv-x="1366" 
d="M1281 347q-21 -182 -32 -344l-10 -9q-411 8 -624 8q-156 0 -553 -8l-10 9v70q74 93 226 309l146 208l187 275l278 421l-251 -1q-291 -1 -335 -14q-26 -7 -36 -40q-4 -13 -17 -93l-8 -50l-11 -10h-61l-10 12q7 106 7 191q0 27 -2 120l10 10q136 -6 606 -6q111 0 483 6
l10 -10v-60l-82 -115l-222 -314l-296 -434l-233 -358q53 -2 161 -2q507 0 540 28q18 15 46 154q6 29 11 48l11 10h60zM1058 1895l-245 -356h-196l-245 356l3 10h77l263 -215l263 215h77z" />
    <glyph glyph-name="Zdotaccent" unicode="&#x17b;" horiz-adv-x="1366" 
d="M1281 347q-21 -182 -32 -344l-10 -9q-411 8 -624 8q-156 0 -553 -8l-10 9v70q74 93 226 309l146 208l187 275l278 421l-251 -1q-291 -1 -335 -14q-26 -7 -36 -40q-4 -13 -17 -93l-8 -50l-11 -10h-61l-10 12q7 106 7 191q0 27 -2 120l10 10q136 -6 606 -6q111 0 483 6
l10 -10v-60l-82 -115l-222 -314l-296 -434l-233 -358q53 -2 161 -2q507 0 540 28q18 15 46 154q6 29 11 48l11 10h60zM861 1722q0 -61 -42.5 -103.5t-103.5 -42.5q-60 0 -102.5 42.5t-42.5 103.5t43 104.5t102 43.5t102.5 -42.5t43.5 -105.5z" />
    <glyph glyph-name="uni01B7" unicode="&#x1b7;" horiz-adv-x="1135" 
d="M1041 514q-2 -222 -185 -379q-211 -181 -454 -179q-121 1 -252 64l-23 143q-7 38 -37 147l6 14l48 21l18 -9q100 -272 317 -274q148 -1 225 106q68 95 69 220q1 160 -97 238q-82 65 -187 66q-33 0 -59 -6l-26 44l153 192q50 64 169 242q-160 -6 -255 -6q-120 0 -132 -2
q-43 -7 -64 -30q-17 -18 -54 -112l-19 -12l-45 2l-12 12l55 198q11 38 48 211q113 -10 348 -20q245 -2 436 21l9 -59l-236 -271l-219 -276q94 17 138 14q132 -9 210 -79q108 -97 107 -241z" />
    <glyph glyph-name="Eng" unicode="&#x14a;" horiz-adv-x="1706" 
d="M1640 1334l-11 -10q-102 -6 -117 -10q-29 -8 -34 -37q-13 -72 -13 -310v-1089q0 -362 -257 -362q-57 0 -112 33l-8 14l43 133l12 6q40 -25 86 -25q178 0 178 224v76q-35 6 -113 17q-268 301 -915 1098v-654q0 -238 13 -310q5 -29 34 -37q15 -4 117 -10l10 -10v-68l-10 -9
q-115 6 -214 6q-115 0 -231 -6l-10 9v68l10 10q102 6 117 10q29 8 34 37q13 72 13 310v529q0 238 -13 310q-5 29 -34 37q-15 4 -117 10l-10 10v68l10 9q95 -6 181 -6q135 0 224 6q360 -480 846 -1029v585q0 238 -13 310q-5 29 -34 37q-15 4 -117 10l-10 10v68l10 9
q112 -6 213 -6q129 0 232 6l10 -9v-68z" />
    <glyph glyph-name="glyph136" horiz-adv-x="1638" 
d="M1460 138q-3 -101 -23 -171q-69 -240 -292 -364q-98 -54 -171 -54q-41 0 -82 15q5 73 5 185l23 14q81 -73 143 -73q32 0 55 16q31 22 38 61q14 77 14 524v515q0 167 -27 242q-26 72 -96 110.5t-166 38.5q-188 0 -339 -199v-560q0 -238 13 -310q5 -29 34 -37
q15 -4 117 -10l10 -10v-67l-9 -10q-100 6 -308 6q-215 0 -308 -6l-10 9v68l10 10q102 6 117 10q29 8 34 37q13 72 13 310v529q0 200 -25 232q-13 17 -34 21.5t-119 11.5l-10 10v68l10 9q227 22 464 109l20 -17l-13 -248q108 134 216 187q99 49 235 49q233 0 353 -117
q63 -61 86 -130.5t23 -186.5z" />
    <glyph glyph-name="Thorn" unicode="&#xde;" horiz-adv-x="1251" 
d="M1173 826q0 -258 -204 -384q-100 -62 -207 -62q-40 0 -128 15l-33 74l20 20q48 -14 86 -14q106 0 138.5 72t32.5 171q0 173 -46.5 243.5t-158.5 70.5q-69 0 -131 -21v-573q0 -238 13 -310q5 -29 34 -37q9 -2 137 -10l13 -10v-67l-10 -10q-141 6 -330 6q-215 0 -308 -6
l-10 9v68l11 10q101 6 116 10q29 8 34 37q13 72 13 310v529q0 238 -13 310q-5 29 -34 37q-15 4 -117 10l-10 10v68l10 9q96 -6 308 -6q217 0 308 6l9 -9v-69l-10 -9q-102 -6 -117 -10q-29 -8 -34 -37q-9 -50 -9 -139l21 -1q43 -2 157 -5q248 -3 332 -56q117 -73 117 -250z
" />
    <glyph glyph-name="a" unicode="a" 
d="M977 6l-11 -11q-84 5 -193 5q-85 0 -163 -5l-9 11l9 134l-194 -148q-23 -17 -66 -21q-17 -2 -40 -2q-111 0 -170.5 67t-59.5 185q0 156 99 221q107 71 431 128q0 159 -84 213q-51 33 -122 33q-78 0 -123 -32l-38 -93l-13 -7l-51 12l-7 14l5 118q165 122 248 138
q35 7 91 7q197 0 281 -103q61 -75 61 -230q0 -38 -3 -122q-5 -140 -5 -187q0 -151 5 -192.5t23.5 -52.5t88.5 -13l10 -11v-56zM610 239v246q-165 -36 -222.5 -77.5t-57.5 -126.5q0 -136 119 -136q101 0 161 94zM530 1018zM530 -78z" />
    <glyph glyph-name="b" unicode="b" horiz-adv-x="1251" 
d="M1145 575q0 -181 -86 -313q-37 -57 -67 -80t-127 -91l-113 -80q-48 -34 -109 -47q-38 -8 -85 -8q-118 0 -251 83l-93 -75l-45 16q19 318 19 554v393q0 52 -5 242q-1 53 -5 95q-5 52 -53 61q-11 2 -83 5l-10 11v55l10 11q191 20 387 83l22 -12q-13 -374 -13 -579v-106
l121 101q90 75 207 75q242 0 335 -192q44 -91 44 -202zM888 463q0 147 -67.5 235t-181.5 88q-66 0 -127 -35q-51 -29 -74 -67v-472q75 -111 207 -111q118 0 182 102q61 97 61 260z" />
    <glyph glyph-name="c" unicode="c" horiz-adv-x="909" 
d="M861 126l-44 -99q-136 -71 -268 -71q-223 0 -341 128t-118 351q0 206 91 313q25 30 95 79q144 102 192.5 122t148.5 20q136 0 225 -41l10 -18q-1 -13 -14 -93l-11 -68q-3 -17 -9 -134l-10 -10h-60l-10 10q-6 89 -14 124q-44 78 -169 78q-212 0 -212 -275q0 -200 85 -315
q87 -119 245 -119q96 0 169 41z" />
    <glyph glyph-name="d" unicode="d" horiz-adv-x="1251" 
d="M1200 3l-10 -10q-98 7 -177 7q-75 0 -203 -7l-9 7q4 49 4 164q-36 -30 -103 -92q-83 -77 -108 -92q-32 -15 -104 -15q-171 0 -276 129t-105 334q0 199 81 310q21 29 124 103q120 86 175 109q48 20 122 20q104 0 194 -44v56q0 263 -13 310q-7 26 -41 32q-16 3 -92 6
l-10 11v55l10 11q192 20 387 83l22 -12q0 -4 -4 -99q-9 -215 -9 -646v-323q0 -281 13 -309q8 -17 22 -21q22 -7 100 -13l10 -10v-54zM805 525v188q-72 86 -138 110q-45 16 -96 16q-138 0 -178 -142q-22 -79 -22 -176q0 -207 97 -307q51 -53 137 -53q71 0 132 45q55 40 65 86
q3 14 3 233z" />
    <glyph glyph-name="e" unicode="e" 
d="M952 561q0 -17 -1 -51l-11 -14q-132 -36 -350 -36q-39 0 -118 -1.5t-119 -1.5q6 -147 91 -243q89 -103 232 -103q96 0 228 66l24 -29l-44 -99q-146 -93 -317 -93q-225 0 -349.5 127t-124.5 362q0 279 133 382q184 142 349 142q179 0 277 -103q100 -106 100 -305zM691 587
q0 270 -168 270q-177 0 -177 -268v-22q58 -9 206 -9q77 0 138 9q1 14 1 20zM570 -78zM570 1018z" />
    <glyph glyph-name="f" unicode="f" horiz-adv-x="797" 
d="M780 1481l-4 -107l2 -100l-31 -18q-48 50 -122 50q-116 0 -130 -89q-7 -45 -7 -180v-140h91q68 0 176 8l14 -11l-23 -114l-10 -10l-143 1q-76 0 -105 -1v-178q0 -454 14 -485q8 -18 27 -23q30 -7 138 -10l10 -10v-61l-10 -10l-74 3q-106 4 -230 4q-179 0 -273 -7l-10 10
v61l10 10q96 3 119 15q20 9 22 48q7 130 7 455v178q-22 1 -27 1q-11 0 -58 -3q-23 -1 -63 -3l-10 10v31l9 14l89 46q26 12 55 29q5 6 5 18v15q0 154 20 210q11 30 42 68q9 11 130 126l62 59q27 27 69 64q55 40 134 40q42 0 85 -14z" />
    <glyph glyph-name="g" unicode="g" horiz-adv-x="1138" 
d="M1117 -69q0 -219 -163.5 -349t-427.5 -130q-207 0 -327.5 77.5t-120.5 208.5q0 88 39 133q4 5 106 66q49 29 72 41q-138 24 -138 133q0 58 40 118q3 4 54 40l85 61q-216 78 -216 289q0 163 122 262.5t325 99.5q196 0 307 -87q63 -3 81 -2q49 2 148 5l12 -11l-11 -103
l-11 -10h-148q13 -48 13 -98q0 -238 -231 -325q-104 -39 -205 -39q-34 0 -88 5q-63 -34 -63 -89q0 -51 73 -58q42 -4 140 -4q31 0 108 3t114 3q226 0 281 -100q30 -54 30 -140zM706 630q0 252 -169 252q-166 0 -166 -218q0 -258 173 -258q162 0 162 224zM888 -183
q0 109 -76 137q-32 12 -128 13l-190 2q-32 0 -88 -2q-137 -85 -137 -195q0 -101 81 -158.5t217 -57.5q146 0 233.5 70.5t87.5 190.5z" />
    <glyph glyph-name="h" unicode="h" horiz-adv-x="1251" 
d="M1208 4l-10 -11q-110 7 -186 7q-70 0 -204 -7l-10 10q18 223 18 344v196q0 244 -176 244q-94 0 -146 -65q-42 -52 -42 -134v-118q0 -203 7 -333q2 -39 22 -48q23 -12 119 -15l11 -10v-61l-10 -10q-95 7 -274 7t-273 -7l-10 10v61l10 10q96 3 119 15q20 9 22 48
q7 130 7 455v335q0 210 -7 340q-2 37 -22 48.5t-116 14.5l-10 11v55l10 11q193 21 387 83l21 -12q0 -27 -3 -99q-10 -239 -10 -529v-56l176 148q66 27 145 27q159 0 238 -96q64 -78 64 -229q0 -17 -4 -122t-4 -191q0 -151 5 -192.5t23 -52.5t104 -13l9 -10v-59z" />
    <glyph glyph-name="i" unicode="i" horiz-adv-x="682" 
d="M487 1308q0 -64 -45 -109.5t-108 -45.5q-64 0 -109 45.5t-45 109.5q0 66 45.5 111t108.5 45q62 0 107.5 -45t45.5 -111zM625 3l-10 -10q-95 7 -274 7t-273 -7l-10 10v61l10 10q96 3 119 15q20 9 22 48q7 130 7 279v143q0 194 -15 230q-8 20 -43 25q-12 2 -87 5l-10 10v56
l10 11q192 17 387 83l21 -13q-13 -182 -13 -307v-319q0 -73 7 -203q2 -39 22 -48q23 -12 119 -15l11 -10v-61zM341 -78z" />
    <glyph glyph-name="j" unicode="j" horiz-adv-x="682" 
d="M483 1308q0 -64 -45 -109.5t-108 -45.5q-64 0 -109 45.5t-45 109.5t45.5 110t108.5 46q62 0 107.5 -45t45.5 -111zM476 966q-13 -64 -13 -307v-170l2 -294q2 -328 -56 -476q-78 -197 -225 -251q-60 -22 -119 -22q-17 0 -38 3l-22 72l10 14q18 -2 30 -2q105 0 138 106
q30 98 30 510v410q0 179 -13 223q-7 25 -40 31q-15 3 -93 6l-10 10v56l10 11q191 17 387 83z" />
    <glyph glyph-name="k" unicode="k" horiz-adv-x="1251" 
d="M1230 3l-10 -10q-67 4 -163 4q-89 0 -176 -4q-56 102 -271 339q-113 125 -144 147l7 -342q2 -39 22 -48q23 -12 119 -15l11 -10v-61l-10 -10q-95 7 -274 7t-273 -7l-10 10v61l10 10q96 3 119 15q20 9 22 48q7 130 7 455v335q0 210 -7 340q-2 37 -22 48.5t-116 14.5
l-10 11v55l10 11q193 21 387 83l21 -12q0 -27 -3 -99q-10 -239 -10 -529v-327l99 81q65 53 182 177l104 110q29 31 46 54q85 -3 138 -3q67 0 121 3l10 -10v-60l-10 -10l-73 -4q-44 -2 -91 -35q-18 -13 -76 -60l-84 -69l-30 -28l-85 -76l214 -250q204 -238 245 -258
q21 -10 44 -10l10 -11v-61z" />
    <glyph glyph-name="l" unicode="l" horiz-adv-x="682" 
d="M625 3l-10 -10q-95 7 -274 7t-273 -7l-10 10v61l10 10q96 3 119 15q20 9 22 48q7 130 7 455v335q0 210 -7 340q-2 37 -22 48.5t-116 14.5l-10 11v55l10 11q193 21 387 83l21 -12q0 -27 -3 -99q-10 -239 -10 -529v-258q0 -325 7 -455q2 -39 22 -48q23 -12 119 -15l11 -10
v-61z" />
    <glyph glyph-name="m" unicode="m" horiz-adv-x="1821" 
d="M1775 5l-10 -11q-58 6 -206 6q-123 0 -175 -6l-14 19q16 249 16 363v91q0 147 -9 197q-11 60 -50 96t-106 36q-75 0 -125 -42t-50 -107v-298l4 -158q2 -64 11 -84q6 -13 27 -19q18 -5 97 -13l11 -10v-60l-12 -11q-121 6 -245 6q-154 0 -264 -6l-11 11v59l10 12
q63 6 87 11q18 4 26 30q6 19 7 111l2 323q0 112 -17 160q-14 38 -53 63q-35 23 -92 23q-90 0 -143 -60q-25 -28 -29.5 -45t-4.5 -75v-217q0 -64 4 -166q4 -105 8 -122q6 -21 33.5 -28.5t83.5 -8.5l10 -10v-61l-10 -10q-85 6 -254 6q-179 0 -273 -7l-10 10v61l10 10
q96 3 119 15q20 9 22 48q7 130 7 279v143q0 200 -15 230q-10 20 -43 25q-12 2 -87 5l-10 10v56l10 11q180 17 379 83l22 -13l-2 -159l178 144q49 22 116 22q115 0 179 -37.5t103 -131.5l182 147q49 23 119 23q193 0 268 -140q33 -62 33 -190q0 -53 -1 -79l-1 -38
q-2 -48 -2 -64v-130q0 -151 5 -192.5t23 -52.5t102 -13l10 -11v-59z" />
    <glyph glyph-name="n" unicode="n" horiz-adv-x="1251" 
d="M1208 4l-10 -11q-110 7 -186 7q-70 0 -204 -7l-10 10q18 223 18 344v196q0 244 -176 244q-92 0 -144 -63q-44 -53 -44 -107v-187q0 -259 13 -318q8 -35 116 -37l10 -10v-61l-10 -10q-85 6 -254 6q-179 0 -273 -7l-10 10v61l10 10q96 3 119 15q20 9 22 48q7 130 7 279v143
q0 200 -15 230q-10 20 -43 25q-12 2 -87 5l-10 10v56l10 11q180 17 379 83l22 -13l-2 -168l172 144q66 27 145 27q159 0 238 -96q64 -78 64 -229q0 -17 -4 -139t-4 -174q0 -151 5 -192.5t23 -52.5t104 -13l9 -10v-59z" />
    <glyph glyph-name="o" unicode="o" horiz-adv-x="1139" 
d="M1057 496q0 -354 -238 -479q-116 -61 -265 -61q-230 0 -350.5 133t-120.5 381q0 343 234 457q115 56 267 56q319 0 423 -221q50 -106 50 -266zM780 414q0 249 -54.5 356.5t-166.5 107.5q-199 0 -199 -359q0 -461 223 -461q139 0 177 153q20 80 20 203zM580 -78zM580 1018
z" />
    <glyph glyph-name="p" unicode="p" horiz-adv-x="1251" 
d="M1156 580q0 -123 -44 -235q-32 -82 -84 -139q-23 -25 -86 -72l-165 -128q-59 -39 -150 -39q-87 0 -174 32v-375q0 -46 11 -61q6 -8 27 -13q16 -4 128 -12l11 -10v-62l-10 -10q-135 8 -307 8q-126 0 -252 -8l-10 10v60l10 11q101 3 116 16q10 9 12 19q4 19 8 98
q3 60 4 153l2 155v581q0 10 -6 148q-3 65 -10.5 83.5t-41.5 23.5q-12 2 -88 5l-10 10v56l10 11q191 17 387 83l22 -13q0 -43 -9 -173l169 139q49 37 151 37q248 0 338 -190q41 -87 41 -199zM899 457q0 218 -115 294q-61 40 -127 40q-123 0 -204 -101v-496q91 -96 200 -96
q163 0 218 169q28 85 28 190z" />
    <glyph glyph-name="q" unicode="q" horiz-adv-x="1251" 
d="M1203 -534l-10 -10q-149 8 -252 8q-108 0 -307 -8l-10 10v62l11 10q136 10 155 25q11 9 11 61v522q-146 -115 -208 -170q-40 -20 -100 -20q-174 0 -276 117q-109 123 -109 346q0 203 84 315q28 37 127 104q108 71 200 108q57 23 122 23q139 0 295 -87l104 86l45 -22
l-16 -103q-8 -52 -13 -174q-5 -111 -5 -245v-446q0 -222 4 -308q5 -104 20 -117q9 -8 22 -11t96 -5l10 -11v-60zM801 266v460q-84 115 -221 115q-216 0 -216 -339q0 -153 56 -250q61 -105 179 -105q126 0 202 119z" />
    <glyph glyph-name="r" unicode="r" horiz-adv-x="797" 
d="M795 966l-7 -178q-1 -44 -4 -100l-42 -13q-47 68 -130 68q-75 0 -124 -60q-30 -37 -30 -109v-234q0 -73 7 -203q2 -37 21 -48t139 -15l10 -9v-61l-10 -10q-147 6 -292 6q-179 0 -273 -7l-10 10v61l10 10q96 3 119 15q20 9 22 48q7 130 7 279v143q0 200 -15 230
q-10 20 -43 25q-12 2 -87 5l-10 10v56l10 11q180 17 379 83l22 -13l-2 -196l150 168q41 40 112 40q42 0 71 -12z" />
    <glyph glyph-name="s" unicode="s" horiz-adv-x="909" 
d="M839 314q0 -161 -121.5 -259.5t-317.5 -98.5q-139 0 -298 60l-11 15q9 92 11 143l5 126l10 11h59l12 -11q4 -112 9 -132q85 -109 223 -109q88 0 141 43t53 115q0 91 -80 121q-34 13 -135 34q-165 35 -221 80q-85 68 -85 201q0 145 105 233q110 92 298 92q160 0 266 -54
l9 -16q-11 -45 -17 -231l-11 -10h-57l-11 10q-4 72 -14 117q-63 80 -183 80q-78 0 -128 -38t-50 -100q0 -83 85 -111q38 -12 148 -34q168 -33 222 -76q84 -67 84 -201z" />
    <glyph glyph-name="t" unicode="t" horiz-adv-x="682" 
d="M666 131q-7 -8 -43 -42q-59 -56 -101 -102q-49 -16 -99 -16q-139 0 -203 81q-27 35 -36 81q-10 55 -9 144l3 239v250h-27l-53 -2h-41l-11 9v26l8 15l56 36q45 28 68 47v136q0 85 -8 180q75 24 121.5 42.5t131.5 60.5l26 -20q-12 -124 -17 -222l-9 -173h33q109 0 188 7
l11 -11l-14 -117l-10 -10h-208v-339q0 -163 4 -192q5 -42 35.5 -68t82.5 -26q41 0 99 22z" />
    <glyph glyph-name="u" unicode="u" horiz-adv-x="1251" 
d="M1201 5l-10 -10q-150 5 -189 5q-33 0 -98 -2.5t-97 -2.5l-8 8q8 82 8 156q-52 -39 -182 -166q-65 -25 -139 -25q-135 0 -213 73.5t-78 211.5q0 17 2 72t2 106v128q0 198 -15 230q-10 20 -43 25q-12 2 -88 5l-10 10v56l10 11q191 17 387 83l22 -13q-13 -166 -13 -307v-195
q0 -137 9 -187q10 -60 47.5 -91t100.5 -31q78 0 137 50q56 50 59 114q2 49 2 61v179q0 196 -15 230q-9 20 -42 25q-12 2 -88 5l-11 10v56l11 11q190 17 387 83l21 -13q-13 -150 -13 -307v-314q0 -211 12 -239q6 -14 20 -18q24 -7 104 -12l11 -10v-61zM621 1018zM621 -78z
" />
    <glyph glyph-name="v" unicode="v" horiz-adv-x="1138" 
d="M1118 873l-10 -11q-61 -4 -80 -15q-14 -8 -34 -44t-75 -162l-191 -443l-86 -215h-175q-56 158 -122 323l-179 452q-33 84 -71 98q-22 8 -59 9l-11 11v58l11 10q92 -3 267 -3q154 0 241 3l11 -10v-59l-11 -11q-74 -2 -96 -9t-22 -27q0 -28 123 -352q65 -173 85 -217
l122 294q95 235 95 275q0 21 -20.5 27.5t-98.5 9.5l-11 10v59l11 10q77 -3 182 -3q113 0 194 3l10 -10v-61z" />
    <glyph glyph-name="w" unicode="w" horiz-adv-x="1706" 
d="M1679 874l-11 -10q-59 -2 -75 -8.5t-27.5 -23t-42.5 -100.5q-37 -100 -73 -208l-116 -348q-15 -44 -30 -98l-27 -95h-164l-109 268l-161 371q-138 -289 -246 -555l-34 -84h-162q-3 8 -18 76q-9 39 -25 97l-147 524q-33 116 -46 146q-10 20 -26 27.5t-97 10.5l-10 11v59
l11 10q78 -3 258 -3q184 0 274 3l11 -10v-60l-11 -9q-78 0 -104 -7t-26 -30q0 -21 10 -59l121 -461l240 534l54 127h102l283 -661l98 298q55 167 55 216q0 25 -17 31t-112 11l-11 10v59l12 11q75 -3 208 -3q98 0 180 3l11 -10v-60z" />
    <glyph glyph-name="x" unicode="x" 
d="M987 8l-10 -10q-51 2 -151 2q-130 0 -154 -2q-18 24 -62 97l-65 109l-77 136q-127 -168 -236 -342q-33 2 -87 2q-67 0 -89 -2l-12 11v58l11 11q55 1 75 14t88 95l193 247l-131 219q-57 96 -79 127q-24 35 -43 46.5t-47 11.5q-9 0 -42 -4l-14 9l-11 54l9 14q169 33 288 64
q77 -57 233 -335q74 96 166 233l53 79q61 -3 103 -3q40 0 79 3l12 -12v-57l-10 -10q-53 -4 -71.5 -14t-68.5 -66q-32 -35 -119 -141l-86 -104l144 -255q102 -181 131 -199q13 -8 70 -16l10 -11v-59z" />
    <glyph glyph-name="y" unicode="y" horiz-adv-x="1139" 
d="M1117 873l-9 -9q-66 0 -90 -38q-13 -22 -71 -147q-131 -285 -217 -498l-161 -398q-75 -185 -161 -263q-81 -73 -198 -73q-74 0 -143 35q17 71 35 199l26 5q52 -74 141 -74q105 0 193 205l41 96l-324 842q-28 73 -51.5 90.5t-92.5 18.5l-10 10v60l11 10q64 -3 245 -3
q168 0 273 3l10 -10v-60l-10 -10q-114 0 -114 -41q0 -18 10 -44l49 -137l146 -386l88 211q129 309 129 361q0 36 -116 36l-10 10v60l11 10q58 -3 196 -3q78 0 163 3l11 -10v-61zM811 -78zM580 1018z" />
    <glyph glyph-name="z" unicode="z" 
d="M948 308q-22 -205 -22 -308l-7 -7q-320 8 -477 8q-124 0 -396 -8l-11 10v57q103 114 557 771h-117q-228 0 -249 -18q-12 -11 -18 -51q-2 -16 -13 -80l-2 -14l-11 -10h-59l-11 10q8 178 8 208q0 31 -1 61l9 9q33 -2 100 -4q21 -1 245 -3l145 -1q66 0 299 7l10 -11v-61
l-181 -245l-157 -220l-133 -191q-52 -75 -74 -110l108 -2q59 -1 195 5q122 5 135.5 17t45.5 181l11 10h60z" />
    <glyph glyph-name="aacute" unicode="&#xe1;" 
d="M977 6l-11 -11q-84 5 -193 5q-85 0 -163 -5l-9 11l9 134l-194 -148q-23 -17 -66 -21q-17 -2 -40 -2q-111 0 -170.5 67t-59.5 185q0 156 99 221q107 71 431 128q0 159 -84 213q-51 33 -122 33q-78 0 -123 -32l-38 -93l-13 -7l-51 12l-7 14l5 118q165 122 248 138
q35 7 91 7q197 0 281 -103q61 -75 61 -230q0 -38 -3 -122q-5 -140 -5 -187q0 -151 5 -192.5t23.5 -52.5t88.5 -13l10 -11v-56zM610 239v246q-165 -36 -222.5 -77.5t-57.5 -126.5q0 -136 119 -136q101 0 161 94zM530 1018zM530 -78zM786 1474l-328 -385l-56 30v13l140 341
l219 29z" />
    <glyph glyph-name="agrave" unicode="&#xe0;" 
d="M977 6l-11 -11q-84 5 -193 5q-85 0 -163 -5l-9 11l9 134l-194 -148q-23 -17 -66 -21q-17 -2 -40 -2q-111 0 -170.5 67t-59.5 185q0 156 99 221q107 71 431 128q0 159 -84 213q-51 33 -122 33q-78 0 -123 -32l-38 -93l-13 -7l-51 12l-7 14l5 118q165 122 248 138
q35 7 91 7q197 0 281 -103q61 -75 61 -230q0 -38 -3 -122q-5 -140 -5 -187q0 -151 5 -192.5t23.5 -52.5t88.5 -13l10 -11v-56zM610 239v246q-165 -36 -222.5 -77.5t-57.5 -126.5q0 -136 119 -136q101 0 161 94zM530 1018zM530 -78zM658 1119l-56 -30l-328 385l25 28l219 -29
l140 -341v-13z" />
    <glyph glyph-name="acircumflex" unicode="&#xe2;" 
d="M977 6l-11 -11q-84 5 -193 5q-85 0 -163 -5l-9 11l9 134l-194 -148q-23 -17 -66 -21q-17 -2 -40 -2q-111 0 -170.5 67t-59.5 185q0 156 99 221q107 71 431 128q0 159 -84 213q-51 33 -122 33q-78 0 -123 -32l-38 -93l-13 -7l-51 12l-7 14l5 118q165 122 248 138
q35 7 91 7q197 0 281 -103q61 -75 61 -230q0 -38 -3 -122q-5 -140 -5 -187q0 -151 5 -192.5t23.5 -52.5t88.5 -13l10 -11v-56zM610 239v246q-165 -36 -222.5 -77.5t-57.5 -126.5q0 -136 119 -136q101 0 161 94zM530 1018zM530 -78zM843 1120l-3 -10h-77l-233 241l-233 -241
h-77l-3 10l225 362h176zM530 1441zM893 1229z" />
    <glyph glyph-name="adieresis" unicode="&#xe4;" 
d="M977 6l-11 -11q-84 5 -193 5q-85 0 -163 -5l-9 11l9 134l-194 -148q-23 -17 -66 -21q-17 -2 -40 -2q-111 0 -170.5 67t-59.5 185q0 156 99 221q107 71 431 128q0 159 -84 213q-51 33 -122 33q-78 0 -123 -32l-38 -93l-13 -7l-51 12l-7 14l5 118q165 122 248 138
q35 7 91 7q197 0 281 -103q61 -75 61 -230q0 -38 -3 -122q-5 -140 -5 -187q0 -151 5 -192.5t23.5 -52.5t88.5 -13l10 -11v-56zM610 239v246q-165 -36 -222.5 -77.5t-57.5 -126.5q0 -136 119 -136q101 0 161 94zM530 1018zM530 -78zM863 1252q0 -54 -38 -92.5t-91 -38.5
t-91 38.5t-38 92.5t38 92.5t91 38.5t91 -37.5t38 -93.5zM455 1252q0 -54 -38 -92.5t-91 -38.5t-91 38.5t-38 92.5t38 92.5t91 38.5t91 -38t38 -93z" />
    <glyph glyph-name="atilde" unicode="&#xe3;" 
d="M977 6l-11 -11q-84 5 -193 5q-85 0 -163 -5l-9 11l9 134l-194 -148q-23 -17 -66 -21q-17 -2 -40 -2q-111 0 -170.5 67t-59.5 185q0 156 99 221q107 71 431 128q0 159 -84 213q-51 33 -122 33q-78 0 -123 -32l-38 -93l-13 -7l-51 12l-7 14l5 118q165 122 248 138
q35 7 91 7q197 0 281 -103q61 -75 61 -230q0 -38 -3 -122q-5 -140 -5 -187q0 -151 5 -192.5t23.5 -52.5t88.5 -13l10 -11v-56zM610 239v246q-165 -36 -222.5 -77.5t-57.5 -126.5q0 -136 119 -136q101 0 161 94zM530 1018zM530 -78zM886 1382q-61 -240 -233 -240
q-47 0 -160 56q-101 50 -135 50q-79 0 -114 -99h-63l-7 10q61 240 233 240q47 0 160 -56q101 -50 135 -50q79 0 114 99h63z" />
    <glyph glyph-name="abreve" unicode="&#x103;" 
d="M977 6l-11 -11q-84 5 -193 5q-85 0 -163 -5l-9 11l9 134l-194 -148q-23 -17 -66 -21q-17 -2 -40 -2q-111 0 -170.5 67t-59.5 185q0 156 99 221q107 71 431 128q0 159 -84 213q-51 33 -122 33q-78 0 -123 -32l-38 -93l-13 -7l-51 12l-7 14l5 118q165 122 248 138
q35 7 91 7q197 0 281 -103q61 -75 61 -230q0 -38 -3 -122q-5 -140 -5 -187q0 -151 5 -192.5t23.5 -52.5t88.5 -13l10 -11v-56zM610 239v246q-165 -36 -222.5 -77.5t-57.5 -126.5q0 -136 119 -136q101 0 161 94zM530 1018zM530 -78zM814 1412q-3 -123 -83 -206t-201 -83
t-201 83t-83 206l10 10h60q35 -148 214 -148t214 148h60zM530 1422z" />
    <glyph glyph-name="aring" unicode="&#xe5;" 
d="M977 6l-11 -11q-84 5 -193 5q-85 0 -163 -5l-9 11l9 134l-194 -148q-23 -17 -66 -21q-17 -2 -40 -2q-111 0 -170.5 67t-59.5 185q0 156 99 221q107 71 431 128q0 159 -84 213q-51 33 -122 33q-78 0 -123 -32l-38 -93l-13 -7l-51 12l-7 14l5 118q165 122 248 138
q35 7 91 7q197 0 281 -103q61 -75 61 -230q0 -38 -3 -122q-5 -140 -5 -187q0 -151 5 -192.5t23.5 -52.5t88.5 -13l10 -11v-56zM610 239v246q-165 -36 -222.5 -77.5t-57.5 -126.5q0 -136 119 -136q101 0 161 94zM530 1018zM530 -78zM730 1277q0 -82 -56.5 -132t-143.5 -50
t-142 49q-58 51 -58 133t58 133q55 48 142 48t142 -48q58 -51 58 -133zM632 1277q0 52 -27 87t-75 35t-75 -35t-27 -87t26 -86q28 -37 76 -37t76 37q26 34 26 86z" />
    <glyph glyph-name="aringacute" unicode="&#x1fb;" 
d="M977 6l-11 -11q-84 5 -193 5q-85 0 -163 -5l-9 11l9 134l-194 -148q-23 -17 -66 -21q-17 -2 -40 -2q-111 0 -170.5 67t-59.5 185q0 156 99 221q107 71 431 128q0 159 -84 213q-51 33 -122 33q-78 0 -123 -32l-38 -93l-13 -7l-51 12l-7 14l5 118q165 122 248 138
q35 7 91 7q197 0 281 -103q61 -75 61 -230q0 -38 -3 -122q-5 -140 -5 -187q0 -151 5 -192.5t23.5 -52.5t88.5 -13l10 -11v-56zM610 239v246q-165 -36 -222.5 -77.5t-57.5 -126.5q0 -136 119 -136q101 0 161 94zM530 1018zM530 -78zM730 1277q0 -82 -56.5 -132t-143.5 -50
t-142 49q-58 51 -58 133t58 133q55 48 142 48t142 -48q58 -51 58 -133zM632 1277q0 52 -27 87t-75 35t-75 -35t-27 -87t26 -86q28 -37 76 -37t76 37q26 34 26 86zM786 1913l-328 -385l-56 30v13l140 341l219 29z" />
    <glyph glyph-name="amacron" unicode="&#x101;" 
d="M977 6l-11 -11q-84 5 -193 5q-85 0 -163 -5l-9 11l9 134l-194 -148q-23 -17 -66 -21q-17 -2 -40 -2q-111 0 -170.5 67t-59.5 185q0 156 99 221q107 71 431 128q0 159 -84 213q-51 33 -122 33q-78 0 -123 -32l-38 -93l-13 -7l-51 12l-7 14l5 118q165 122 248 138
q35 7 91 7q197 0 281 -103q61 -75 61 -230q0 -38 -3 -122q-5 -140 -5 -187q0 -151 5 -192.5t23.5 -52.5t88.5 -13l10 -11v-56zM610 239v246q-165 -36 -222.5 -77.5t-57.5 -126.5q0 -136 119 -136q101 0 161 94zM530 1018zM530 -78zM853 1184h-646v126h646v-126z" />
    <glyph glyph-name="aogonek" unicode="&#x105;" 
d="M1009 -367l-6 -13q-34 -23 -84 -40q-58 -20 -128 -20q-98 0 -157 48q-62 51 -62 138q0 81 62 154q52 62 133 100q-79 0 -157 -5l-9 11l9 134l-194 -148q-23 -17 -66 -21q-17 -2 -40 -2q-111 0 -170.5 67t-59.5 185q0 156 99 221q108 71 431 128q0 159 -84 213
q-51 33 -122 33q-78 0 -123 -32l-38 -93l-13 -7l-51 12l-7 14l5 118q165 122 248 138q36 7 91 7q197 0 281 -103q61 -75 61 -230q0 -38 -3 -122q-5 -140 -5 -187q0 -151 5 -192.5t23.5 -52.5t88.5 -13l10 -11v-56l-11 -11q-45 3 -116 4q-128 -94 -128 -223q0 -132 138 -132
q62 0 129 27l13 -5zM610 239v246q-165 -36 -222.5 -77.5t-57.5 -126.5q0 -136 119 -136q101 0 161 94z" />
    <glyph glyph-name="ae" unicode="&#xe6;" horiz-adv-x="1593" 
d="M1504 563q0 -18 -1 -53l-11 -14q-132 -36 -350 -36q-39 0 -118 -1.5t-119 -1.5q6 -148 90 -244q90 -102 233 -102q100 0 227 66l25 -29l-45 -99q-145 -93 -316 -93q-300 0 -407 203q-74 -42 -225 -168q-59 -32 -136 -32q-121 0 -189 72q-65 69 -65 178q0 75 34.5 143
t87.5 93q133 62 434 112q1 18 1 29q0 231 -213 231q-76 0 -149 -41q-12 -23 -29 -83l-13 -8l-49 9l-10 12q-2 82 -4 118q3 1 105 61q62 36 123 66q55 18 145 18q167 0 267 -107q166 107 300 107q179 0 278 -104t99 -302zM1245 587q0 270 -168 270q-177 0 -177 -268v-22
q58 -9 206 -9q77 0 138 9q1 14 1 20zM654 460q-41 0 -113 -19t-109 -39q-76 -42 -76 -145q0 -54 35 -88t93 -34q88 0 162 89q7 22 7 88z" />
    <glyph glyph-name="aeacute" unicode="&#x1fd;" horiz-adv-x="1593" 
d="M1504 563q0 -18 -1 -53l-11 -14q-132 -36 -350 -36q-39 0 -118 -1.5t-119 -1.5q6 -148 90 -244q90 -102 233 -102q100 0 227 66l25 -29l-45 -99q-145 -93 -316 -93q-300 0 -407 203q-74 -42 -225 -168q-59 -32 -136 -32q-121 0 -189 72q-65 69 -65 178q0 75 34.5 143
t87.5 93q133 62 434 112q1 18 1 29q0 231 -213 231q-76 0 -149 -41q-12 -23 -29 -83l-13 -8l-49 9l-10 12q-2 82 -4 118q3 1 105 61q62 36 123 66q55 18 145 18q167 0 267 -107q166 107 300 107q179 0 278 -104t99 -302zM1245 587q0 270 -168 270q-177 0 -177 -268v-22
q58 -9 206 -9q77 0 138 9q1 14 1 20zM654 460q-41 0 -113 -19t-109 -39q-76 -42 -76 -145q0 -54 35 -88t93 -34q88 0 162 89q7 22 7 88zM1093 1474l-328 -385l-56 30v13l140 341l219 29z" />
    <glyph glyph-name="cacute" unicode="&#x107;" horiz-adv-x="909" 
d="M861 126l-44 -99q-136 -71 -268 -71q-223 0 -341 128t-118 351q0 206 91 313q25 30 95 79q144 102 192.5 122t148.5 20q136 0 225 -41l10 -18q-1 -13 -14 -93l-11 -68q-3 -17 -9 -134l-10 -10h-60l-10 10q-6 89 -14 124q-44 78 -169 78q-212 0 -212 -275q0 -200 85 -315
q87 -119 245 -119q96 0 169 41zM811 1474l-328 -385l-56 30v13l140 341l219 29z" />
    <glyph glyph-name="ccircumflex" unicode="&#x109;" horiz-adv-x="909" 
d="M861 126l-44 -99q-136 -71 -268 -71q-223 0 -341 128t-118 351q0 206 91 313q25 30 95 79q144 102 192.5 122t148.5 20q136 0 225 -41l10 -18q-1 -13 -14 -93l-11 -68q-3 -17 -9 -134l-10 -10h-60l-10 10q-6 89 -14 124q-44 78 -169 78q-212 0 -212 -275q0 -200 85 -315
q87 -119 245 -119q96 0 169 41zM868 1120l-3 -10h-77l-233 241l-233 -241h-77l-3 10l225 362h176zM555 1441zM918 1229z" />
    <glyph glyph-name="ccaron" unicode="&#x10d;" horiz-adv-x="909" 
d="M861 126l-44 -99q-136 -71 -268 -71q-223 0 -341 128t-118 351q0 206 91 313q25 30 95 79q144 102 192.5 122t148.5 20q136 0 225 -41l10 -18q-1 -13 -14 -93l-11 -68q-3 -17 -9 -134l-10 -10h-60l-10 10q-6 89 -14 124q-44 78 -169 78q-212 0 -212 -275q0 -200 85 -315
q87 -119 245 -119q96 0 169 41zM868 1472l-225 -362h-176l-225 362l3 10h77l233 -241l233 241h77z" />
    <glyph glyph-name="ccedilla" unicode="&#xe7;" horiz-adv-x="909" 
d="M861 126l-44 -99q-136 -71 -268 -71h-22l-42 -94q33 5 64 5q81 0 133 -41t52 -108q0 -75 -72 -130t-192 -55q-98 0 -187 33l-5 16l19 43l15 5q63 -22 105 -22q55 0 91 26q40 29 40 80q0 36 -26 58.5t-63 22.5q-26 0 -55 -5l-20 16l67 157q-181 27 -274 159
q-87 122 -87 313q0 206 91 313q25 30 95 79q144 102 192.5 122t148.5 20q136 0 225 -41l10 -18q-1 -12 -14 -93l-11 -68q-3 -19 -9 -134l-10 -10h-60l-10 10q-6 89 -14 124q-44 78 -169 78q-212 0 -212 -275q0 -200 85 -315q87 -119 245 -119q96 0 169 41z" />
    <glyph glyph-name="cdotaccent" unicode="&#x10b;" horiz-adv-x="909" 
d="M861 126l-44 -99q-136 -71 -268 -71q-223 0 -341 128t-118 351q0 206 91 313q25 30 95 79q144 102 192.5 122t148.5 20q136 0 225 -41l10 -18q-1 -13 -14 -93l-11 -68q-3 -17 -9 -134l-10 -10h-60l-10 10q-6 89 -14 124q-44 78 -169 78q-212 0 -212 -275q0 -200 85 -315
q87 -119 245 -119q96 0 169 41zM691 1252q0 -54 -38 -92.5t-91 -38.5t-91 38.5t-38 92.5t38 92.5t91 38.5t91 -37.5t38 -93.5z" />
    <glyph glyph-name="dcaron" unicode="&#x10f;" horiz-adv-x="1473" 
d="M1200 3l-10 -10q-98 7 -177 7q-75 0 -203 -7l-9 7q4 49 4 164q-36 -30 -103 -92q-83 -77 -108 -92q-32 -15 -104 -15q-171 0 -276 129t-105 334q0 199 81 310q21 29 124 103q120 86 175 109q48 20 122 20q104 0 194 -44v56q0 263 -13 310q-7 26 -41 32q-16 3 -92 6
l-10 11v55l10 11q192 20 387 83l22 -12q0 -4 -4 -99q-9 -215 -9 -646v-323q0 -281 13 -309q8 -17 22 -21q22 -7 100 -13l10 -10v-54zM805 525v188q-72 86 -138 110q-45 16 -96 16q-138 0 -178 -142q-22 -79 -22 -176q0 -207 97 -307q51 -53 137 -53q71 0 132 45q55 40 65 86
q3 14 3 233zM1450 1312q0 -109 -78.5 -185t-193.5 -88l-7 25q100 21 143 72q31 37 31 74q0 38 -45 38q-56 0 -91 30q-38 32 -38 86q0 57 36.5 91.5t92.5 34.5q70 0 110 -50.5t40 -127.5z" />
    <glyph glyph-name="dcroat" unicode="&#x111;" horiz-adv-x="1251" 
d="M1209 1103l-10 -10h-142q-2 -155 -2 -360v-323q0 -281 13 -309q8 -17 22 -21q22 -7 100 -13l10 -10v-54l-10 -10q-98 7 -177 7q-75 0 -203 -7l-9 7q4 49 4 164q-36 -30 -103 -92q-83 -77 -108 -92q-32 -15 -104 -15q-171 0 -276 129t-105 334q0 199 81 310q21 29 124 103
q120 86 175 109q48 20 122 20q104 0 194 -44v56q0 42 -2 111h-234l-10 11v63l10 11h231q-5 123 -21 135.5t-120 16.5l-10 11v55l10 11q192 20 387 83l22 -12q0 -7 -4 -105q-4 -110 -6 -195h141l10 -11v-64zM805 525v188q-72 86 -138 110q-45 16 -96 16q-138 0 -178 -142
q-22 -79 -22 -176q0 -207 97 -307q51 -53 137 -53q71 0 132 45q55 40 65 86q3 14 3 233z" />
    <glyph glyph-name="eacute" unicode="&#xe9;" 
d="M952 561q0 -17 -1 -51l-11 -14q-132 -36 -350 -36q-39 0 -118 -1.5t-119 -1.5q6 -147 91 -243q89 -103 232 -103q96 0 228 66l24 -29l-44 -99q-146 -93 -317 -93q-225 0 -349.5 127t-124.5 362q0 279 133 382q184 142 349 142q179 0 277 -103q100 -106 100 -305zM691 587
q0 270 -168 270q-177 0 -177 -268v-22q58 -9 206 -9q77 0 138 9q1 14 1 20zM570 -78zM570 1018zM826 1474l-328 -385l-56 30v13l140 341l219 29z" />
    <glyph glyph-name="egrave" unicode="&#xe8;" 
d="M952 561q0 -17 -1 -51l-11 -14q-132 -36 -350 -36q-39 0 -118 -1.5t-119 -1.5q6 -147 91 -243q89 -103 232 -103q96 0 228 66l24 -29l-44 -99q-146 -93 -317 -93q-225 0 -349.5 127t-124.5 362q0 279 133 382q184 142 349 142q179 0 277 -103q100 -106 100 -305zM691 587
q0 270 -168 270q-177 0 -177 -268v-22q58 -9 206 -9q77 0 138 9q1 14 1 20zM570 -78zM570 1018zM698 1119l-56 -30l-328 385l25 28l219 -29l140 -341v-13z" />
    <glyph glyph-name="ecircumflex" unicode="&#xea;" 
d="M952 561q0 -17 -1 -51l-11 -14q-132 -36 -350 -36q-39 0 -118 -1.5t-119 -1.5q6 -147 91 -243q89 -103 232 -103q96 0 228 66l24 -29l-44 -99q-146 -93 -317 -93q-225 0 -349.5 127t-124.5 362q0 279 133 382q184 142 349 142q179 0 277 -103q100 -106 100 -305zM691 587
q0 270 -168 270q-177 0 -177 -268v-22q58 -9 206 -9q77 0 138 9q1 14 1 20zM570 -78zM570 1018zM853 1120l-3 -10h-77l-233 241l-233 -241h-77l-3 10l225 362h176zM540 1441zM903 1229z" />
    <glyph glyph-name="edieresis" unicode="&#xeb;" 
d="M952 561q0 -17 -1 -51l-11 -14q-132 -36 -350 -36q-39 0 -118 -1.5t-119 -1.5q6 -147 91 -243q89 -103 232 -103q96 0 228 66l24 -29l-44 -99q-146 -93 -317 -93q-225 0 -349.5 127t-124.5 362q0 279 133 382q184 142 349 142q179 0 277 -103q100 -106 100 -305zM691 587
q0 270 -168 270q-177 0 -177 -268v-22q58 -9 206 -9q77 0 138 9q1 14 1 20zM570 -78zM570 1018zM873 1252q0 -54 -38 -92.5t-91 -38.5t-91 38.5t-38 92.5t38 92.5t91 38.5t91 -37.5t38 -93.5zM465 1252q0 -54 -38 -92.5t-91 -38.5t-91 38.5t-38 92.5t38 92.5t91 38.5t91 -38
t38 -93z" />
    <glyph glyph-name="ecaron" unicode="&#x11b;" 
d="M952 561q0 -17 -1 -51l-11 -14q-132 -36 -350 -36q-39 0 -118 -1.5t-119 -1.5q6 -147 91 -243q89 -103 232 -103q96 0 228 66l24 -29l-44 -99q-146 -93 -317 -93q-225 0 -349.5 127t-124.5 362q0 279 133 382q184 142 349 142q179 0 277 -103q100 -106 100 -305zM691 587
q0 270 -168 270q-177 0 -177 -268v-22q58 -9 206 -9q77 0 138 9q1 14 1 20zM570 -78zM570 1018zM853 1472l-225 -362h-176l-225 362l3 10h77l233 -241l233 241h77z" />
    <glyph glyph-name="ebreve" unicode="&#x115;" 
d="M952 561q0 -17 -1 -51l-11 -14q-132 -36 -350 -36q-39 0 -118 -1.5t-119 -1.5q6 -147 91 -243q89 -103 232 -103q96 0 228 66l24 -29l-44 -99q-146 -93 -317 -93q-225 0 -349.5 127t-124.5 362q0 279 133 382q184 142 349 142q179 0 277 -103q100 -106 100 -305zM691 587
q0 270 -168 270q-177 0 -177 -268v-22q58 -9 206 -9q77 0 138 9q1 14 1 20zM570 -78zM570 1018zM824 1412q-3 -123 -83 -206t-201 -83t-201 83t-83 206l10 10h60q35 -148 214 -148t214 148h60zM540 1422z" />
    <glyph glyph-name="edotaccent" unicode="&#x117;" 
d="M952 561q0 -17 -1 -51l-11 -14q-132 -36 -350 -36q-39 0 -118 -1.5t-119 -1.5q6 -147 91 -243q89 -103 232 -103q96 0 228 66l24 -29l-44 -99q-146 -93 -317 -93q-225 0 -349.5 127t-124.5 362q0 279 133 382q184 142 349 142q179 0 277 -103q100 -106 100 -305zM691 587
q0 270 -168 270q-177 0 -177 -268v-22q58 -9 206 -9q77 0 138 9q1 14 1 20zM570 -78zM570 1018zM669 1252q0 -54 -38 -92.5t-91 -38.5t-91 38.5t-38 92.5t38 92.5t91 38.5t91 -37.5t38 -93.5z" />
    <glyph glyph-name="emacron" unicode="&#x113;" 
d="M952 561q0 -17 -1 -51l-11 -14q-132 -36 -350 -36q-39 0 -118 -1.5t-119 -1.5q6 -147 91 -243q89 -103 232 -103q96 0 228 66l24 -29l-44 -99q-146 -93 -317 -93q-225 0 -349.5 127t-124.5 362q0 279 133 382q184 142 349 142q179 0 277 -103q100 -106 100 -305zM691 587
q0 270 -168 270q-177 0 -177 -268v-22q58 -9 206 -9q77 0 138 9q1 14 1 20zM570 -78zM570 1018zM863 1184h-646v126h646v-126z" />
    <glyph glyph-name="eogonek" unicode="&#x119;" 
d="M952 561q0 -17 -1 -51l-11 -14q-132 -36 -350 -36q-39 0 -118 -1.5t-119 -1.5q6 -146 90 -243q90 -103 233 -103q96 0 228 66l24 -29l-44 -99q-137 -88 -296 -93q-78 -80 -78 -180q0 -132 138 -132q62 0 129 27l13 -5l7 -33l-6 -13q-34 -23 -84 -40q-58 -20 -128 -20
q-98 0 -157 48q-62 51 -62 138q0 122 127 214q-195 22 -298 156q-96 126 -96 329q0 279 133 382q184 142 349 142q188 0 285 -112q92 -105 92 -296zM691 587q0 270 -168 270q-177 0 -177 -268v-22q58 -9 206 -9q77 0 138 9q1 14 1 20z" />
    <glyph glyph-name="uni01F5" unicode="&#x1f5;" horiz-adv-x="1138" 
d="M1117 -69q0 -219 -163.5 -349t-427.5 -130q-207 0 -327.5 77.5t-120.5 208.5q0 88 39 133q4 5 106 66q49 29 72 41q-138 24 -138 133q0 58 40 118q3 4 54 40l85 61q-216 78 -216 289q0 163 122 262.5t325 99.5q196 0 307 -87q63 -3 81 -2q49 2 148 5l12 -11l-11 -103
l-11 -10h-148q13 -48 13 -98q0 -238 -231 -325q-104 -39 -205 -39q-34 0 -88 5q-63 -34 -63 -89q0 -51 73 -58q42 -4 140 -4q31 0 108 3t114 3q226 0 281 -100q30 -54 30 -140zM706 630q0 252 -169 252q-166 0 -166 -218q0 -258 173 -258q162 0 162 224zM888 -183
q0 109 -76 137q-32 12 -128 13l-190 2q-32 0 -88 -2q-137 -85 -137 -195q0 -101 81 -158.5t217 -57.5q146 0 233.5 70.5t87.5 190.5zM823 1474l-328 -385l-56 30v13l140 341l219 29z" />
    <glyph glyph-name="gcircumflex" unicode="&#x11d;" horiz-adv-x="1138" 
d="M1117 -69q0 -219 -163.5 -349t-427.5 -130q-207 0 -327.5 77.5t-120.5 208.5q0 88 39 133q4 5 106 66q49 29 72 41q-138 24 -138 133q0 58 40 118q3 4 54 40l85 61q-216 78 -216 289q0 163 122 262.5t325 99.5q196 0 307 -87q63 -3 81 -2q49 2 148 5l12 -11l-11 -103
l-11 -10h-148q13 -48 13 -98q0 -238 -231 -325q-104 -39 -205 -39q-34 0 -88 5q-63 -34 -63 -89q0 -51 73 -58q42 -4 140 -4q31 0 108 3t114 3q226 0 281 -100q30 -54 30 -140zM706 630q0 252 -169 252q-166 0 -166 -218q0 -258 173 -258q162 0 162 224zM888 -183
q0 109 -76 137q-32 12 -128 13l-190 2q-32 0 -88 -2q-137 -85 -137 -195q0 -101 81 -158.5t217 -57.5q146 0 233.5 70.5t87.5 190.5zM855 1120l-3 -10h-77l-233 241l-233 -241h-77l-3 10l225 362h176zM542 1441zM905 1229z" />
    <glyph glyph-name="gbreve" unicode="&#x11f;" horiz-adv-x="1138" 
d="M1117 -69q0 -219 -163.5 -349t-427.5 -130q-207 0 -327.5 77.5t-120.5 208.5q0 88 39 133q4 5 106 66q49 29 72 41q-138 24 -138 133q0 58 40 118q3 4 54 40l85 61q-216 78 -216 289q0 163 122 262.5t325 99.5q196 0 307 -87q63 -3 81 -2q49 2 148 5l12 -11l-11 -103
l-11 -10h-148q13 -48 13 -98q0 -238 -231 -325q-104 -39 -205 -39q-34 0 -88 5q-63 -34 -63 -89q0 -51 73 -58q42 -4 140 -4q31 0 108 3t114 3q226 0 281 -100q30 -54 30 -140zM706 630q0 252 -169 252q-166 0 -166 -218q0 -258 173 -258q162 0 162 224zM888 -183
q0 109 -76 137q-32 12 -128 13l-190 2q-32 0 -88 -2q-137 -85 -137 -195q0 -101 81 -158.5t217 -57.5q146 0 233.5 70.5t87.5 190.5zM826 1412q-3 -123 -83 -206t-201 -83t-201 83t-83 206l10 10h60q35 -148 214 -148t214 148h60zM542 1422z" />
    <glyph glyph-name="gcommaaccent" unicode="&#x123;" horiz-adv-x="1138" 
d="M1117 -69q0 -219 -163.5 -349t-427.5 -130q-207 0 -327.5 77.5t-120.5 208.5q0 88 39 133q4 5 106 66q49 29 72 41q-138 24 -138 133q0 58 40 118q3 4 54 40l85 61q-216 78 -216 289q0 163 122 262.5t325 99.5q196 0 307 -87q63 -3 81 -2q49 2 148 5l12 -11l-11 -103
l-11 -10h-148q13 -48 13 -98q0 -238 -231 -325q-104 -39 -205 -39q-34 0 -88 5q-63 -34 -63 -89q0 -51 73 -58q42 -4 140 -4q31 0 108 3t114 3q226 0 281 -100q30 -54 30 -140zM706 630q0 252 -169 252q-166 0 -166 -218q0 -258 173 -258q162 0 162 224zM888 -183
q0 109 -76 137q-32 12 -128 13l-190 2q-32 0 -88 -2q-137 -85 -137 -195q0 -101 81 -158.5t217 -57.5q146 0 233.5 70.5t87.5 190.5zM671 1230q0 -57 -36.5 -91.5t-92.5 -34.5q-70 0 -110 50.5t-40 127.5q0 109 80 186q77 75 192 87l7 -25q-100 -21 -143 -72
q-31 -37 -31 -74q0 -38 45 -38q56 0 92.5 -31t36.5 -85z" />
    <glyph glyph-name="gdotaccent" unicode="&#x121;" horiz-adv-x="1138" 
d="M1117 -69q0 -219 -163.5 -349t-427.5 -130q-207 0 -327.5 77.5t-120.5 208.5q0 88 39 133q4 5 106 66q49 29 72 41q-138 24 -138 133q0 58 40 118q3 4 54 40l85 61q-216 78 -216 289q0 163 122 262.5t325 99.5q196 0 307 -87q63 -3 81 -2q49 2 148 5l12 -11l-11 -103
l-11 -10h-148q13 -48 13 -98q0 -238 -231 -325q-104 -39 -205 -39q-34 0 -88 5q-63 -34 -63 -89q0 -51 73 -58q42 -4 140 -4q31 0 108 3t114 3q226 0 281 -100q30 -54 30 -140zM706 630q0 252 -169 252q-166 0 -166 -218q0 -258 173 -258q162 0 162 224zM888 -183
q0 109 -76 137q-32 12 -128 13l-190 2q-32 0 -88 -2q-137 -85 -137 -195q0 -101 81 -158.5t217 -57.5q146 0 233.5 70.5t87.5 190.5zM671 1252q0 -54 -38 -92.5t-91 -38.5t-91 38.5t-38 92.5t38 92.5t91 38.5t91 -37.5t38 -93.5z" />
    <glyph glyph-name="hcircumflex" unicode="&#x125;" horiz-adv-x="1251" 
d="M1208 4l-10 -11q-110 7 -186 7q-70 0 -204 -7l-10 10q18 223 18 344v196q0 244 -176 244q-94 0 -146 -65q-42 -52 -42 -134v-118q0 -203 7 -333q2 -39 22 -48q23 -12 119 -15l11 -10v-61l-10 -10q-95 7 -274 7t-273 -7l-10 10v61l10 10q96 3 119 15q20 9 22 48
q7 130 7 455v335q0 210 -7 340q-2 37 -22 48.5t-116 14.5l-10 11v55l10 11q193 21 387 83l21 -12q0 -27 -3 -99q-10 -239 -10 -529v-56l176 148q66 27 145 27q159 0 238 -96q64 -78 64 -229q0 -17 -4 -122t-4 -191q0 -151 5 -192.5t23 -52.5t104 -13l9 -10v-59zM650 1570
l-3 -10h-77l-233 241l-233 -241h-77l-3 10l225 362h176zM337 1891zM700 1679z" />
    <glyph glyph-name="hbar" unicode="&#x127;" horiz-adv-x="1251" 
d="M1208 4l-10 -11q-110 7 -186 7q-70 0 -204 -7l-10 10q18 223 18 344v196q0 244 -176 244q-94 0 -146 -65q-42 -52 -42 -134v-118q0 -203 7 -333q2 -39 22 -48q23 -12 119 -15l11 -10v-61l-10 -10q-95 7 -274 7t-273 -7l-10 10v61l10 10q96 3 119 15q20 9 22 48
q7 130 7 455v335q0 65 -2 166h-119l-11 11v63l11 11h117l-3 89q-2 37 -22 48.5t-116 14.5l-10 11v55l10 11q193 21 387 83l21 -12q0 -27 -3 -99.5t-6 -200.5h306l10 -11v-64l-10 -10h-308q-2 -123 -2 -243v-56l176 148q66 27 145 27q159 0 238 -96q64 -78 64 -229
q0 -17 -4 -122t-4 -191q0 -151 5 -192.5t23 -52.5t104 -13l9 -10v-59z" />
    <glyph glyph-name="iacute" unicode="&#xed;" horiz-adv-x="682" 
d="M625 3l-10 -10q-95 7 -274 7t-273 -7l-10 10v61l10 10q96 3 119 15q20 9 22 48q7 130 7 279v143q0 194 -15 230q-8 20 -43 25q-12 2 -87 5l-10 10v56l10 11q192 17 387 83l21 -13q-13 -182 -13 -307v-319q0 -73 7 -203q2 -39 22 -48q23 -12 119 -15l11 -10v-61zM341 1018
zM574 1474l-328 -385l-56 30v13l140 341l219 29z" />
    <glyph glyph-name="igrave" unicode="&#xec;" horiz-adv-x="682" 
d="M625 3l-10 -10q-95 7 -274 7t-273 -7l-10 10v61l10 10q96 3 119 15q20 9 22 48q7 130 7 279v143q0 194 -15 230q-8 20 -43 25q-12 2 -87 5l-10 10v56l10 11q192 17 387 83l21 -13q-13 -182 -13 -307v-319q0 -73 7 -203q2 -39 22 -48q23 -12 119 -15l11 -10v-61zM341 1018
zM445 1119l-56 -30l-328 385l25 28l219 -29l140 -341v-13z" />
    <glyph glyph-name="icircumflex" unicode="&#xee;" horiz-adv-x="682" 
d="M625 3l-10 -10q-95 7 -274 7t-273 -7l-10 10v61l10 10q96 3 119 15q20 9 22 48q7 130 7 279v143q0 194 -15 230q-8 20 -43 25q-12 2 -87 5l-10 10v56l10 11q192 17 387 83l21 -13q-13 -182 -13 -307v-319q0 -73 7 -203q2 -39 22 -48q23 -12 119 -15l11 -10v-61zM341 1018
zM629 1120l-3 -10h-77l-233 241l-233 -241h-77l-3 10l225 362h176zM316 1441zM679 1229z" />
    <glyph glyph-name="idieresis" unicode="&#xef;" horiz-adv-x="682" 
d="M625 3l-10 -10q-95 7 -274 7t-273 -7l-10 10v61l10 10q96 3 119 15q20 9 22 48q7 130 7 279v143q0 194 -15 230q-8 20 -43 25q-12 2 -87 5l-10 10v56l10 11q192 17 387 83l21 -13q-13 -182 -13 -307v-319q0 -73 7 -203q2 -39 22 -48q23 -12 119 -15l11 -10v-61zM341 1018
zM651 1252q0 -54 -38 -92.5t-91 -38.5t-91 38.5t-38 92.5t38 92.5t91 38.5t91 -37.5t38 -93.5zM243 1252q0 -54 -38 -92.5t-91 -38.5t-91 38.5t-38 92.5t38 92.5t91 38.5t91 -38t38 -93z" />
    <glyph glyph-name="itilde" unicode="&#x129;" horiz-adv-x="682" 
d="M625 3l-10 -10q-95 7 -274 7t-273 -7l-10 10v61l10 10q96 3 119 15q20 9 22 48q7 130 7 279v143q0 194 -15 230q-8 20 -43 25q-12 2 -87 5l-10 10v56l10 11q192 17 387 83l21 -13q-13 -182 -13 -307v-319q0 -73 7 -203q2 -39 22 -48q23 -12 119 -15l11 -10v-61zM341 1018
zM674 1382q-61 -240 -233 -240q-47 0 -160 56q-101 50 -135 50q-79 0 -114 -99h-63l-7 10q61 240 233 240q47 0 160 -56q101 -50 135 -50q79 0 114 99h63z" />
    <glyph glyph-name="ibreve" unicode="&#x12d;" horiz-adv-x="682" 
d="M625 3l-10 -10q-95 7 -274 7t-273 -7l-10 10v61l10 10q96 3 119 15q20 9 22 48q7 130 7 279v143q0 194 -15 230q-8 20 -43 25q-12 2 -87 5l-10 10v56l10 11q192 17 387 83l21 -13q-13 -182 -13 -307v-319q0 -73 7 -203q2 -39 22 -48q23 -12 119 -15l11 -10v-61zM341 1018
zM602 1412q-3 -123 -83 -206t-201 -83t-201 83t-83 206l10 10h60q35 -148 214 -148t214 148h60zM318 1422z" />
    <glyph glyph-name="dotlessi" unicode="&#x131;" horiz-adv-x="682" 
d="M625 3l-10 -10q-95 7 -274 7t-273 -7l-10 10v61l10 10q96 3 119 15q20 9 22 48q7 130 7 279v143q0 194 -15 230q-8 20 -43 25q-12 2 -87 5l-10 10v56l10 11q192 17 387 83l21 -13q-13 -182 -13 -307v-319q0 -73 7 -203q2 -39 22 -48q23 -12 119 -15l11 -10v-61zM341 1018
z" />
    <glyph glyph-name="imacron" unicode="&#x12b;" horiz-adv-x="682" 
d="M625 3l-10 -10q-95 7 -274 7t-273 -7l-10 10v61l10 10q96 3 119 15q20 9 22 48q7 130 7 279v143q0 194 -15 230q-8 20 -43 25q-12 2 -87 5l-10 10v56l10 11q192 17 387 83l21 -13q-13 -182 -13 -307v-319q0 -73 7 -203q2 -39 22 -48q23 -12 119 -15l11 -10v-61zM341 1018
zM641 1184h-646v126h646v-126z" />
    <glyph glyph-name="iogonek" unicode="&#x12f;" horiz-adv-x="682" 
d="M487 1308q0 -64 -45 -109.5t-108 -45.5q-64 0 -109 45.5t-45 109.5q0 65 45 110.5t109 45.5q65 0 109 -45.5t44 -110.5zM625 3l-10 -10q-80 6 -202 7q-129 -95 -129 -224q0 -132 138 -132q62 0 129 27l13 -5l7 -33l-6 -13q-34 -23 -84 -40q-58 -20 -128 -20
q-98 0 -157 48q-62 51 -62 138q0 81 62 154q52 62 133 100q-167 0 -261 -7l-10 10v61l10 10q94 3 119 15q20 10 22 48q7 131 7 279v143q0 193 -15 230q-8 20 -43 25q-14 2 -87 5l-10 10v56l10 11q192 17 387 83l21 -13q-13 -182 -13 -307v-319q0 -72 7 -203q2 -38 22 -48
q25 -12 119 -15l11 -10v-61z" />
    <glyph glyph-name="jcircumflex" unicode="&#x135;" horiz-adv-x="682" 
d="M228 1482h176l225 -362l-3 -10h-77l-233 242l-233 -242h-77l-3 10zM455 979l21 -13q-13 -64 -13 -307v-170l2 -294q0 -130 -8.5 -253.5t-47 -222.5t-101.5 -163.5t-124.5 -87t-118.5 -22.5q-16 0 -38 3l-22 72l10 14q18 -2 31 -2q51 0 86.5 27.5t51.5 79t22.5 176
t6.5 333.5v410q0 33 -4 120.5t-8 101t-13.5 21t-28 11t-91.5 6.5l-11 10v56l11 11q190 17 387 83z" />
    <glyph glyph-name="kcommaaccent" unicode="&#x137;" horiz-adv-x="1251" 
d="M1230 3l-10 -10q-67 4 -163 4q-89 0 -176 -4q-56 102 -271 339q-113 125 -144 147l7 -342q2 -39 22 -48q23 -12 119 -15l11 -10v-61l-10 -10q-95 7 -274 7t-273 -7l-10 10v61l10 10q96 3 119 15q20 9 22 48q7 130 7 455v335q0 210 -7 340q-2 37 -22 48.5t-116 14.5
l-10 11v55l10 11q193 21 387 83l21 -12q0 -27 -3 -99q-10 -239 -10 -529v-327l99 81q65 53 182 177l104 110q29 31 46 54q85 -3 138 -3q67 0 121 3l10 -10v-60l-10 -10l-73 -4q-44 -2 -91 -35q-18 -13 -76 -60l-84 -69l-30 -28l-85 -76l214 -250q204 -238 245 -258
q21 -10 44 -10l10 -11v-61zM784 -294q0 -109 -78.5 -185t-193.5 -88l-7 25q100 21 143 72q31 37 31 74q0 38 -45 38q-56 0 -91 30q-38 32 -38 86q0 57 36.5 91.5t92.5 34.5q70 0 110 -50.5t40 -127.5z" />
    <glyph glyph-name="glyph210" horiz-adv-x="1251" 
d="M1230 3l-10 -10q-67 4 -163 4q-89 0 -176 -4q-56 102 -271 339q-113 125 -144 147l7 -342q2 -39 22 -48q23 -12 119 -15l11 -10v-61l-10 -10q-95 7 -274 7t-273 -7l-10 10v61l10 10q96 3 119 15q20 9 22 48q7 130 7 455v335q0 210 -7 340q-2 37 -22 48.5t-116 14.5
l-10 11v55l10 11q193 21 387 83l21 -12q0 -27 -3 -99q-10 -239 -10 -529v-327l99 81q65 53 182 177l104 110q29 31 46 54q85 -3 138 -3q67 0 121 3l10 -10v-60l-10 -10l-73 -4q-44 -2 -91 -35q-18 -13 -76 -60l-84 -69l-30 -28l-85 -76l214 -250q204 -238 245 -258
q21 -10 44 -10l10 -11v-61zM819 -282q0 -75 -72 -130t-192 -55q-98 0 -187 33l-5 16l19 43l15 5q63 -22 105 -22q55 0 91 26q40 29 40 80q0 36 -26 58.5t-63 22.5q-26 0 -55 -5l-10 10l15 47q69 20 140 20q81 0 133 -41t52 -108z" />
    <glyph glyph-name="kgreenlandic" unicode="&#x138;" horiz-adv-x="1187" 
d="M1162 4l-10 -10l-188 6q-17 0 -162 -6q-18 30 -67 98q-124 170 -283 361v-113q0 -73 7 -203q2 -37 22 -49t99 -14l11 -10v-61l-10 -10q-95 7 -254 7q-179 0 -273 -7l-10 10v61l10 10q82 2 90 4q48 11 51 59q7 130 7 279v143q0 194 -15 230q-8 20 -43 25q-12 2 -87 5
l-10 10v56l10 11q192 17 387 83l21 -13q-13 -182 -13 -307v-177q213 201 312 303q77 80 77 89q0 12 -14 18v42l12 10q69 -5 131 -5q64 0 148 5l10 -10v-63l-10 -10q-89 0 -151 -35q-31 -18 -123 -98l-177 -154l69 -85l274 -333q35 -42 74 -65q28 -16 68 -17l10 -10v-60z" />
    <glyph glyph-name="lacute" unicode="&#x13a;" horiz-adv-x="682" 
d="M625 3l-10 -10q-95 7 -274 7t-273 -7l-10 10v61l10 10q96 3 119 15q20 9 22 48q7 130 7 455v335q0 210 -7 340q-2 37 -22 48.5t-116 14.5l-10 11v55l10 11q193 21 387 83l21 -12q0 -27 -3 -99q-10 -239 -10 -529v-258q0 -325 7 -455q2 -39 22 -48q23 -12 119 -15l11 -10
v-61zM574 1952l-328 -385l-56 30v13l140 341l219 29z" />
    <glyph glyph-name="lcommaaccent" unicode="&#x13c;" horiz-adv-x="682" 
d="M625 3l-10 -10q-95 7 -274 7t-273 -7l-10 10v61l10 10q96 3 119 15q20 9 22 48q7 130 7 455v335q0 210 -7 340q-2 37 -22 48.5t-116 14.5l-10 11v55l10 11q193 21 387 83l21 -12q0 -27 -3 -99q-10 -239 -10 -529v-258q0 -325 7 -455q2 -39 22 -48q23 -12 119 -15l11 -10
v-61zM481 -294q0 -109 -78.5 -185t-193.5 -88l-7 25q100 21 143 72q31 37 31 74q0 38 -45 38q-56 0 -91 30q-38 32 -38 86q0 57 36.5 91.5t92.5 34.5q70 0 110 -50.5t40 -127.5z" />
    <glyph glyph-name="lcaron" unicode="&#x13e;" horiz-adv-x="884" 
d="M625 3l-10 -10q-95 7 -274 7t-273 -7l-10 10v61l10 10q96 3 119 15q20 9 22 48q7 130 7 455v335q0 210 -7 340q-2 37 -22 48.5t-116 14.5l-10 11v55l10 11q193 21 387 83l21 -12q0 -27 -3 -99q-10 -239 -10 -529v-258q0 -325 7 -455q2 -39 22 -48q23 -12 119 -15l11 -10
v-61zM861 1312q0 -109 -78.5 -185t-193.5 -88l-7 25q100 21 143 72q31 37 31 74q0 38 -45 38q-56 0 -91 30q-38 32 -38 86q0 57 36.5 91.5t92.5 34.5q70 0 110 -50.5t40 -127.5z" />
    <glyph glyph-name="glyph215" horiz-adv-x="682" 
d="M625 3l-10 -10q-95 7 -274 7t-273 -7l-10 10v61l10 10q96 3 119 15q20 9 22 48q7 130 7 455v335q0 210 -7 340q-2 37 -22 48.5t-116 14.5l-10 11v55l10 11q193 21 387 83l21 -12q0 -27 -3 -99q-10 -239 -10 -529v-258q0 -325 7 -455q2 -39 22 -48q23 -12 119 -15l11 -10
v-61zM550 -282q0 -75 -72 -130t-192 -55q-98 0 -187 33l-5 16l19 43l15 5q63 -22 105 -22q55 0 91 26q40 29 40 80q0 36 -26 58.5t-63 22.5q-26 0 -55 -5l-10 10l15 47q69 20 140 20q81 0 133 -41t52 -108z" />
    <glyph glyph-name="ldot" unicode="&#x140;" horiz-adv-x="879" 
d="M625 3l-10 -10q-95 7 -274 7t-273 -7l-10 10v61l10 10q96 3 119 15q20 9 22 48q7 130 7 455v335q0 210 -7 340q-2 37 -22 48.5t-116 14.5l-10 11v55l10 11q193 21 387 83l21 -12q0 -27 -3 -99q-10 -239 -10 -529v-258q0 -325 7 -455q2 -39 22 -48q23 -12 119 -15l11 -10
v-61zM840 791q0 -54 -38 -92.5t-91 -38.5t-91 38.5t-38 92.5t38 92.5t91 38.5t91 -37.5t38 -93.5z" />
    <glyph glyph-name="lslash" unicode="&#x142;" horiz-adv-x="682" 
d="M689 1003l-5 -13l-218 -142v-256q0 -325 7 -455q2 -39 22 -48q23 -12 119 -15l11 -10v-61l-10 -10q-95 7 -274 7t-273 -7l-10 10v61l10 10q96 3 119 15q20 9 22 48q7 130 7 455v93l-179 -117l-13 4l-23 53l4 14l211 137v151q0 210 -7 340q-2 37 -22 48.5t-116 14.5
l-10 11v55l10 11q193 21 387 83l21 -12q0 -27 -3 -99q-9 -208 -10 -440l187 122l14 -6z" />
    <glyph glyph-name="nacute" unicode="&#x144;" horiz-adv-x="1251" 
d="M1208 4l-10 -11q-110 7 -186 7q-70 0 -204 -7l-10 10q18 223 18 344v196q0 244 -176 244q-92 0 -144 -63q-44 -53 -44 -107v-187q0 -259 13 -318q8 -35 116 -37l10 -10v-61l-10 -10q-85 6 -254 6q-179 0 -273 -7l-10 10v61l10 10q96 3 119 15q20 9 22 48q7 130 7 279v143
q0 200 -15 230q-10 20 -43 25q-12 2 -87 5l-10 10v56l10 11q180 17 379 83l22 -13l-2 -168l172 144q66 27 145 27q159 0 238 -96q64 -78 64 -229q0 -17 -4 -139t-4 -174q0 -151 5 -192.5t23 -52.5t104 -13l9 -10v-59zM884 1474l-328 -385l-56 30v13l140 341l219 29z" />
    <glyph glyph-name="ntilde" unicode="&#xf1;" horiz-adv-x="1251" 
d="M1208 4l-10 -11q-110 7 -186 7q-70 0 -204 -7l-10 10q18 223 18 344v196q0 244 -176 244q-92 0 -144 -63q-44 -53 -44 -107v-187q0 -259 13 -318q8 -35 116 -37l10 -10v-61l-10 -10q-85 6 -254 6q-179 0 -273 -7l-10 10v61l10 10q96 3 119 15q20 9 22 48q7 130 7 279v143
q0 200 -15 230q-10 20 -43 25q-12 2 -87 5l-10 10v56l10 11q180 17 379 83l22 -13l-2 -168l172 144q66 27 145 27q159 0 238 -96q64 -78 64 -229q0 -17 -4 -139t-4 -174q0 -151 5 -192.5t23 -52.5t104 -13l9 -10v-59zM980 1382q-61 -240 -233 -240q-47 0 -160 56
q-101 50 -135 50q-79 0 -114 -99h-63l-7 10q61 240 233 240q47 0 160 -56q101 -50 135 -50q79 0 114 99h63z" />
    <glyph glyph-name="ncaron" unicode="&#x148;" horiz-adv-x="1251" 
d="M1208 4l-10 -11q-110 7 -186 7q-70 0 -204 -7l-10 10q18 223 18 344v196q0 244 -176 244q-92 0 -144 -63q-44 -53 -44 -107v-187q0 -259 13 -318q8 -35 116 -37l10 -10v-61l-10 -10q-85 6 -254 6q-179 0 -273 -7l-10 10v61l10 10q96 3 119 15q20 9 22 48q7 130 7 279v143
q0 200 -15 230q-10 20 -43 25q-12 2 -87 5l-10 10v56l10 11q180 17 379 83l22 -13l-2 -168l172 144q66 27 145 27q159 0 238 -96q64 -78 64 -229q0 -17 -4 -139t-4 -174q0 -151 5 -192.5t23 -52.5t104 -13l9 -10v-59zM937 1472l-225 -362h-176l-225 362l3 10h77l233 -241
l233 241h77z" />
    <glyph glyph-name="ncommaaccent" unicode="&#x146;" horiz-adv-x="1251" 
d="M1208 4l-10 -11q-110 7 -186 7q-70 0 -204 -7l-10 10q18 223 18 344v196q0 244 -176 244q-92 0 -144 -63q-44 -53 -44 -107v-187q0 -259 13 -318q8 -35 116 -37l10 -10v-61l-10 -10q-85 6 -254 6q-179 0 -273 -7l-10 10v61l10 10q96 3 119 15q20 9 22 48q7 130 7 279v143
q0 200 -15 230q-10 20 -43 25q-12 2 -87 5l-10 10v56l10 11q180 17 379 83l22 -13l-2 -168l172 144q66 27 145 27q159 0 238 -96q64 -78 64 -229q0 -17 -4 -139t-4 -174q0 -151 5 -192.5t23 -52.5t104 -13l9 -10v-59zM778 -294q0 -109 -78.5 -185t-193.5 -88l-7 25
q100 21 143 72q31 37 31 74q0 38 -45 38q-56 0 -91 30q-38 32 -38 86q0 57 36.5 91.5t92.5 34.5q70 0 110 -50.5t40 -127.5z" />
    <glyph glyph-name="napostrophe" unicode="&#x149;" horiz-adv-x="1634" 
d="M1591 4l-10 -11q-110 7 -186 7q-70 0 -204 -7l-10 10q18 223 18 344v196q0 244 -176 244q-92 0 -144 -63q-44 -53 -44 -107v-187q0 -259 13 -318q8 -35 116 -37l10 -10v-61l-10 -10q-85 6 -254 6q-179 0 -273 -7l-10 10v61l10 10q96 3 119 15q20 9 22 48q7 130 7 279v143
q0 200 -15 230q-10 20 -43 25q-12 2 -87 5l-10 10v56l10 11q180 17 379 83l22 -13l-2 -168l172 144q66 27 145 27q159 0 238 -96q64 -78 64 -229q0 -17 -4 -139t-4 -174q0 -151 5 -192.5t23 -52.5t104 -13l9 -10v-59zM301 1227q0 -109 -78.5 -185t-193.5 -88l-7 25
q100 21 143 72q31 37 31 74q0 38 -45 38q-56 0 -91 30q-38 32 -38 86q0 57 36.5 91.5t92.5 34.5q70 0 110 -50.5t40 -127.5z" />
    <glyph glyph-name="glyph223" horiz-adv-x="1251" 
d="M1208 4l-10 -11q-110 7 -186 7q-70 0 -204 -7l-10 10q18 223 18 344v196q0 244 -176 244q-92 0 -144 -63q-44 -53 -44 -107v-187q0 -259 13 -318q8 -35 116 -37l10 -10v-61l-10 -10q-85 6 -254 6q-179 0 -273 -7l-10 10v61l10 10q96 3 119 15q20 9 22 48q7 130 7 279v143
q0 200 -15 230q-10 20 -43 25q-12 2 -87 5l-10 10v56l10 11q180 17 379 83l22 -13l-2 -168l172 144q66 27 145 27q159 0 238 -96q64 -78 64 -229q0 -17 -4 -139t-4 -174q0 -151 5 -192.5t23 -52.5t104 -13l9 -10v-59zM819 -282q0 -75 -72 -130t-192 -55q-98 0 -187 33l-5 16
l19 43l15 5q63 -22 105 -22q55 0 91 26q40 29 40 80q0 36 -26 58.5t-63 22.5q-26 0 -55 -5l-10 10l15 47q69 20 140 20q81 0 133 -41t52 -108z" />
    <glyph glyph-name="oacute" unicode="&#xf3;" horiz-adv-x="1139" 
d="M1057 496q0 -354 -238 -479q-116 -61 -265 -61q-230 0 -350.5 133t-120.5 381q0 343 234 457q115 56 267 56q319 0 423 -221q50 -106 50 -266zM780 414q0 249 -54.5 356.5t-166.5 107.5q-199 0 -199 -359q0 -461 223 -461q139 0 177 153q20 80 20 203zM580 -78zM580 1018
zM836 1474l-328 -385l-56 30v13l140 341l219 29z" />
    <glyph glyph-name="ograve" unicode="&#xf2;" horiz-adv-x="1139" 
d="M1057 496q0 -354 -238 -479q-116 -61 -265 -61q-230 0 -350.5 133t-120.5 381q0 343 234 457q115 56 267 56q319 0 423 -221q50 -106 50 -266zM780 414q0 249 -54.5 356.5t-166.5 107.5q-199 0 -199 -359q0 -461 223 -461q139 0 177 153q20 80 20 203zM580 -78zM580 1018
zM708 1119l-56 -30l-328 385l25 28l219 -29l140 -341v-13z" />
    <glyph glyph-name="ocircumflex" unicode="&#xf4;" horiz-adv-x="1139" 
d="M1057 496q0 -354 -238 -479q-116 -61 -265 -61q-230 0 -350.5 133t-120.5 381q0 343 234 457q115 56 267 56q319 0 423 -221q50 -106 50 -266zM780 414q0 249 -54.5 356.5t-166.5 107.5q-199 0 -199 -359q0 -461 223 -461q139 0 177 153q20 80 20 203zM580 -78zM580 1018
zM893 1120l-3 -10h-77l-233 241l-233 -241h-77l-3 10l225 362h176zM580 1441zM943 1229z" />
    <glyph glyph-name="odieresis" unicode="&#xf6;" horiz-adv-x="1139" 
d="M1057 496q0 -354 -238 -479q-116 -61 -265 -61q-230 0 -350.5 133t-120.5 381q0 343 234 457q115 56 267 56q319 0 423 -221q50 -106 50 -266zM780 414q0 249 -54.5 356.5t-166.5 107.5q-199 0 -199 -359q0 -461 223 -461q139 0 177 153q20 80 20 203zM580 -78zM580 1018
zM913 1252q0 -54 -38 -92.5t-91 -38.5t-91 38.5t-38 92.5t38 92.5t91 38.5t91 -37.5t38 -93.5zM505 1252q0 -54 -38 -92.5t-91 -38.5t-91 38.5t-38 92.5t38 92.5t91 38.5t91 -38t38 -93z" />
    <glyph glyph-name="otilde" unicode="&#xf5;" horiz-adv-x="1139" 
d="M1057 496q0 -354 -238 -479q-116 -61 -265 -61q-230 0 -350.5 133t-120.5 381q0 343 234 457q115 56 267 56q319 0 423 -221q50 -106 50 -266zM780 414q0 249 -54.5 356.5t-166.5 107.5q-199 0 -199 -359q0 -461 223 -461q139 0 177 153q20 80 20 203zM580 -78zM580 1018
zM936 1382q-61 -240 -233 -240q-47 0 -160 56q-101 50 -135 50q-79 0 -114 -99h-63l-7 10q61 240 233 240q47 0 160 -56q101 -50 135 -50q79 0 114 99h63z" />
    <glyph glyph-name="obreve" unicode="&#x14f;" horiz-adv-x="1139" 
d="M1057 496q0 -354 -238 -479q-116 -61 -265 -61q-230 0 -350.5 133t-120.5 381q0 343 234 457q115 56 267 56q319 0 423 -221q50 -106 50 -266zM780 414q0 249 -54.5 356.5t-166.5 107.5q-199 0 -199 -359q0 -461 223 -461q139 0 177 153q20 80 20 203zM580 -78zM580 1018
zM864 1412q-3 -123 -83 -206t-201 -83t-201 83t-83 206l10 10h60q35 -148 214 -148t214 148h60zM580 1422z" />
    <glyph glyph-name="ohungarumlaut" unicode="&#x151;" horiz-adv-x="1139" 
d="M1057 496q0 -354 -238 -479q-116 -61 -265 -61q-230 0 -350.5 133t-120.5 381q0 343 234 457q115 56 267 56q319 0 423 -221q50 -106 50 -266zM780 414q0 249 -54.5 356.5t-166.5 107.5q-199 0 -199 -359q0 -461 223 -461q139 0 177 153q20 80 20 203zM580 -78zM580 1018
zM1059 1474l-328 -385l-56 30v13l140 341l219 29zM726 1474l-328 -385l-56 30v13l140 341l219 29z" />
    <glyph glyph-name="omacron" unicode="&#x14d;" horiz-adv-x="1139" 
d="M1057 496q0 -354 -238 -479q-116 -61 -265 -61q-230 0 -350.5 133t-120.5 381q0 343 234 457q115 56 267 56q319 0 423 -221q50 -106 50 -266zM780 414q0 249 -54.5 356.5t-166.5 107.5q-199 0 -199 -359q0 -461 223 -461q139 0 177 153q20 80 20 203zM580 -78zM580 1018
zM903 1184h-646v126h646v-126z" />
    <glyph glyph-name="oslash" unicode="&#xf8;" horiz-adv-x="1139" 
d="M1067 930l-100 -102q90 -119 90 -332q0 -354 -238 -479q-116 -61 -265 -61q-213 0 -332 114l-121 -123h-15l-44 42v14l127 129q-86 127 -86 338q0 343 234 457q115 56 267 56q211 0 328 -97l98 100h16l41 -42v-14zM746 718q-50 160 -187 160q-199 0 -199 -359
q0 -102 11 -182zM780 414q0 124 -13 211l-377 -384q52 -183 193 -183q139 0 177 153q20 80 20 203z" />
    <glyph glyph-name="oslashacute" unicode="&#x1ff;" horiz-adv-x="1139" 
d="M1067 930l-100 -102q90 -119 90 -332q0 -354 -238 -479q-116 -61 -265 -61q-213 0 -332 114l-121 -123h-15l-44 42v14l127 129q-86 127 -86 338q0 343 234 457q115 56 267 56q211 0 328 -97l98 100h16l41 -42v-14zM746 718q-50 160 -187 160q-199 0 -199 -359
q0 -102 11 -182zM780 414q0 124 -13 211l-377 -384q52 -183 193 -183q139 0 177 153q20 80 20 203zM836 1474l-328 -385l-56 30v13l140 341l219 29z" />
    <glyph glyph-name="oe" unicode="&#x153;" horiz-adv-x="1706" 
d="M1634 561q0 -17 -1 -51l-11 -14q-132 -36 -350 -36q-39 0 -118 -1.5t-119 -1.5q4 -144 89 -242q90 -104 233 -104q102 0 228 66l25 -29l-45 -99q-145 -93 -316 -93q-214 0 -338 133q-136 -136 -357 -136q-218 0 -335 128q-129 141 -129 388q0 238 131.5 369t373.5 131
q224 0 345 -119q171 119 319 119q176 0 274 -102q101 -106 101 -306zM1373 587q0 270 -168 270q-177 0 -177 -268v-22q58 -9 206 -9q77 0 138 9q1 14 1 20zM792 394q0 249 -54 369q-47 104 -167 104q-201 0 -201 -329q0 -240 53 -360q55 -124 173 -124q196 0 196 340z" />
    <glyph glyph-name="racute" unicode="&#x155;" horiz-adv-x="797" 
d="M795 966l-7 -178q-1 -44 -4 -100l-42 -13q-47 68 -130 68q-75 0 -124 -60q-30 -37 -30 -109v-234q0 -73 7 -203q2 -37 21 -48t139 -15l10 -9v-61l-10 -10q-147 6 -292 6q-179 0 -273 -7l-10 10v61l10 10q96 3 119 15q20 9 22 48q7 130 7 279v143q0 200 -15 230
q-10 20 -43 25q-12 2 -87 5l-10 10v56l10 11q180 17 379 83l22 -13l-2 -196l150 168q41 40 112 40q42 0 71 -12zM703 1474l-328 -385l-56 30v13l140 341l219 29z" />
    <glyph glyph-name="rcaron" unicode="&#x159;" horiz-adv-x="797" 
d="M795 966l-7 -178q-1 -44 -4 -100l-42 -13q-47 68 -130 68q-75 0 -124 -60q-30 -37 -30 -109v-234q0 -73 7 -203q2 -37 21 -48t139 -15l10 -9v-61l-10 -10q-147 6 -292 6q-179 0 -273 -7l-10 10v61l10 10q96 3 119 15q20 9 22 48q7 130 7 279v143q0 200 -15 230
q-10 20 -43 25q-12 2 -87 5l-10 10v56l10 11q180 17 379 83l22 -13l-2 -196l150 168q41 40 112 40q42 0 71 -12zM754 1472l-225 -362h-176l-225 362l3 10h77l233 -241l233 241h77z" />
    <glyph glyph-name="rcommaaccent" unicode="&#x157;" horiz-adv-x="797" 
d="M795 966l-7 -178q-1 -44 -4 -100l-42 -13q-47 68 -130 68q-75 0 -124 -60q-30 -37 -30 -109v-234q0 -73 7 -203q2 -37 21 -48t139 -15l10 -9v-61l-10 -10q-147 6 -292 6q-179 0 -273 -7l-10 10v61l10 10q96 3 119 15q20 9 22 48q7 130 7 279v143q0 200 -15 230
q-10 20 -43 25q-12 2 -87 5l-10 10v56l10 11q180 17 379 83l22 -13l-2 -196l150 168q41 40 112 40q42 0 71 -12zM498 -294q0 -109 -78.5 -185t-193.5 -88l-7 25q100 21 143 72q31 37 31 74q0 38 -45 38q-56 0 -91 30q-38 32 -38 86q0 57 36.5 91.5t92.5 34.5q70 0 110 -50.5
t40 -127.5z" />
    <glyph glyph-name="glyph238" horiz-adv-x="797" 
d="M795 966l-7 -178q-1 -44 -4 -100l-42 -13q-47 68 -130 68q-75 0 -124 -60q-30 -37 -30 -109v-234q0 -73 7 -203q2 -37 21 -48t139 -15l10 -9v-61l-10 -10q-147 6 -292 6q-179 0 -273 -7l-10 10v61l10 10q96 3 119 15q20 9 22 48q7 130 7 279v143q0 200 -15 230
q-10 20 -43 25q-12 2 -87 5l-10 10v56l10 11q180 17 379 83l22 -13l-2 -196l150 168q41 40 112 40q42 0 71 -12zM519 -282q0 -75 -72 -130t-192 -55q-98 0 -187 33l-5 16l19 43l15 5q63 -22 105 -22q55 0 91 26q40 29 40 80q0 36 -26 58.5t-63 22.5q-26 0 -55 -5l-10 10
l15 47q69 20 140 20q81 0 133 -41t52 -108z" />
    <glyph glyph-name="sacute" unicode="&#x15b;" horiz-adv-x="909" 
d="M839 314q0 -161 -121.5 -259.5t-317.5 -98.5q-139 0 -298 60l-11 15q9 92 11 143l5 126l10 11h59l12 -11q4 -112 9 -132q85 -109 223 -109q88 0 141 43t53 115q0 91 -80 121q-34 13 -135 34q-165 35 -221 80q-85 68 -85 201q0 145 105 233q110 92 298 92q160 0 266 -54
l9 -16q-11 -45 -17 -231l-11 -10h-57l-11 10q-4 72 -14 117q-63 80 -183 80q-78 0 -128 -38t-50 -100q0 -83 85 -111q38 -12 148 -34q168 -33 222 -76q84 -67 84 -201zM752 1474l-328 -385l-56 30v13l140 341l219 29z" />
    <glyph glyph-name="scircumflex" unicode="&#x15d;" horiz-adv-x="909" 
d="M839 314q0 -161 -121.5 -259.5t-317.5 -98.5q-139 0 -298 60l-11 15q9 92 11 143l5 126l10 11h59l12 -11q4 -112 9 -132q85 -109 223 -109q88 0 141 43t53 115q0 91 -80 121q-34 13 -135 34q-165 35 -221 80q-85 68 -85 201q0 145 105 233q110 92 298 92q160 0 266 -54
l9 -16q-11 -45 -17 -231l-11 -10h-57l-11 10q-4 72 -14 117q-63 80 -183 80q-78 0 -128 -38t-50 -100q0 -83 85 -111q38 -12 148 -34q168 -33 222 -76q84 -67 84 -201zM774 1120l-3 -10h-77l-233 241l-233 -241h-77l-3 10l225 362h176zM461 1441zM824 1229z" />
    <glyph glyph-name="scaron" unicode="&#x161;" horiz-adv-x="909" 
d="M839 314q0 -161 -121.5 -259.5t-317.5 -98.5q-139 0 -298 60l-11 15q9 92 11 143l5 126l10 11h59l12 -11q4 -112 9 -132q85 -109 223 -109q88 0 141 43t53 115q0 91 -80 121q-34 13 -135 34q-165 35 -221 80q-85 68 -85 201q0 145 105 233q110 92 298 92q160 0 266 -54
l9 -16q-11 -45 -17 -231l-11 -10h-57l-11 10q-4 72 -14 117q-63 80 -183 80q-78 0 -128 -38t-50 -100q0 -83 85 -111q38 -12 148 -34q168 -33 222 -76q84 -67 84 -201zM774 1472l-225 -362h-176l-225 362l3 10h77l233 -241l233 241h77z" />
    <glyph glyph-name="scommaaccent" unicode="&#x219;" horiz-adv-x="909" 
d="M839 314q0 -161 -121.5 -259.5t-317.5 -98.5q-139 0 -298 60l-11 15q9 92 11 143l5 126l10 11h59l12 -11q4 -112 9 -132q85 -109 223 -109q88 0 141 43t53 115q0 91 -80 121q-34 13 -135 34q-165 35 -221 80q-85 68 -85 201q0 145 105 233q110 92 298 92q160 0 266 -54
l9 -16q-11 -45 -17 -231l-11 -10h-57l-11 10q-4 72 -14 117q-63 80 -183 80q-78 0 -128 -38t-50 -100q0 -83 85 -111q38 -12 148 -34q168 -33 222 -76q84 -67 84 -201zM585 -294q0 -109 -78.5 -185t-193.5 -88l-7 25q100 21 143 72q31 37 31 74q0 38 -45 38q-56 0 -91 30
q-38 32 -38 86q0 57 36.5 91.5t92.5 34.5q70 0 110 -50.5t40 -127.5z" />
    <glyph glyph-name="scedilla" unicode="&#x15f;" horiz-adv-x="909" 
d="M839 314q0 -161 -121 -259q-97 -79 -241 -95l-43 -98q33 5 64 5q81 0 133 -41t52 -108q0 -75 -72 -130t-192 -55q-98 0 -187 33l-5 16l19 43l15 5q63 -22 105 -22q55 0 91 26q40 29 40 80q0 36 -26 58.5t-63 22.5q-26 0 -55 -5l-20 16l64 150q-138 1 -295 60l-11 15
q9 92 11 143l5 126l10 11h59l12 -11q4 -112 9 -132q85 -109 223 -109q88 0 141 43t53 115q0 91 -80 121q-33 13 -135 34q-164 35 -221 80q-85 68 -85 201q0 161 125 249q109 76 278 76q160 0 266 -54l9 -16q-11 -45 -17 -231l-11 -10h-57l-11 10q-4 72 -14 117
q-63 80 -183 80q-78 0 -128 -38t-50 -100q0 -83 85 -111q37 -12 148 -34q168 -33 222 -76q84 -67 84 -201z" />
    <glyph glyph-name="uni021B" unicode="&#x21b;" horiz-adv-x="682" 
d="M666 131q-7 -8 -43 -42q-59 -56 -101 -102q-49 -16 -99 -16q-139 0 -203 81q-27 35 -36 81q-10 55 -9 144l3 239v250h-27l-53 -2h-41l-11 9v26l8 15l56 36q45 28 68 47v136q0 85 -8 180q75 24 121.5 42.5t131.5 60.5l26 -20q-12 -124 -17 -222l-9 -173h33q109 0 188 7
l11 -11l-14 -117l-10 -10h-208v-339q0 -163 4 -192q5 -42 35.5 -68t82.5 -26q41 0 99 22zM520 -294q0 -109 -78.5 -185t-193.5 -88l-7 25q100 21 143 72q31 37 31 74q0 38 -45 38q-56 0 -91 30q-38 32 -38 86q0 57 36.5 91.5t92.5 34.5q70 0 110 -50.5t40 -127.5z" />
    <glyph glyph-name="tcaron" unicode="&#x165;" horiz-adv-x="877" 
d="M666 131q-7 -8 -43 -42q-59 -56 -101 -102q-49 -16 -99 -16q-139 0 -203 81q-27 35 -36 81q-10 55 -9 144l3 239v250h-27l-53 -2h-41l-11 9v26l8 15l56 36q45 28 68 47v136q0 85 -8 180q75 24 121.5 42.5t131.5 60.5l26 -20q-12 -124 -17 -222l-9 -173h33q109 0 188 7
l11 -11l-14 -117l-10 -10h-208v-339q0 -163 4 -192q5 -42 35.5 -68t82.5 -26q41 0 99 22zM854 1312q0 -109 -78.5 -185t-193.5 -88l-7 25q100 21 143 72q31 37 31 74q0 38 -45 38q-56 0 -91 30q-38 32 -38 86q0 57 36.5 91.5t92.5 34.5q70 0 110 -50.5t40 -127.5z" />
    <glyph glyph-name="tcommaaccent" unicode="&#x163;" horiz-adv-x="682" 
d="M666 131q-7 -8 -43 -42q-59 -56 -101 -102q-49 -16 -99 -16q-139 0 -203 81q-27 35 -36 81q-10 55 -9 144l3 239v250h-27l-53 -2h-41l-11 9v26l8 15l56 36q45 28 68 47v136q0 85 -8 180q75 24 121.5 42.5t131.5 60.5l26 -20q-12 -124 -17 -222l-9 -173h33q109 0 188 7
l11 -11l-14 -117l-10 -10h-208v-339q0 -163 4 -192q5 -42 35.5 -68t82.5 -26q41 0 99 22zM599 -282q0 -75 -72 -130t-192 -55q-98 0 -187 33l-5 16l19 43l15 5q63 -22 105 -22q55 0 91 26q40 29 40 80q0 36 -26 58.5t-63 22.5q-26 0 -55 -5l-10 10l15 47q69 20 140 20
q81 0 133 -41t52 -108z" />
    <glyph glyph-name="tbar" unicode="&#x167;" horiz-adv-x="682" 
d="M666 131q-7 -8 -43 -42q-59 -56 -101 -102q-49 -16 -99 -16q-139 0 -203 81q-27 35 -36 81q-10 55 -9 144l3 235h-27l-94 -3l-11 10v26l7 14q4 3 57 36q43 27 68 49v122h-27l-53 -2h-41l-11 9v26l8 15l56 36q45 28 68 47v136q0 85 -8 180q75 24 121.5 42.5t131.5 60.5
l26 -20q-12 -124 -17 -222l-9 -173h33q109 0 188 7l11 -11l-14 -117l-10 -10h-208v-124h33q125 0 188 8l11 -11l-14 -117l-10 -11l-111 1l-97 -2v-83q0 -163 4 -192q5 -42 35.5 -68t82.5 -26q41 0 99 22z" />
    <glyph glyph-name="uacute" unicode="&#xfa;" horiz-adv-x="1251" 
d="M1201 5l-10 -10q-150 5 -189 5q-33 0 -98 -2.5t-97 -2.5l-8 8q8 82 8 156q-52 -39 -182 -166q-65 -25 -139 -25q-135 0 -213 73.5t-78 211.5q0 17 2 72t2 106v128q0 198 -15 230q-10 20 -43 25q-12 2 -88 5l-10 10v56l10 11q191 17 387 83l22 -13q-13 -166 -13 -307v-195
q0 -137 9 -187q10 -60 47.5 -91t100.5 -31q78 0 137 50q56 50 59 114q2 49 2 61v179q0 196 -15 230q-9 20 -42 25q-12 2 -88 5l-11 10v56l11 11q190 17 387 83l21 -13q-13 -150 -13 -307v-314q0 -211 12 -239q6 -14 20 -18q24 -7 104 -12l11 -10v-61zM621 1018zM621 -78z
M877 1474l-328 -385l-56 30v13l140 341l219 29z" />
    <glyph glyph-name="ugrave" unicode="&#xf9;" horiz-adv-x="1251" 
d="M1201 5l-10 -10q-150 5 -189 5q-33 0 -98 -2.5t-97 -2.5l-8 8q8 82 8 156q-52 -39 -182 -166q-65 -25 -139 -25q-135 0 -213 73.5t-78 211.5q0 17 2 72t2 106v128q0 198 -15 230q-10 20 -43 25q-12 2 -88 5l-10 10v56l10 11q191 17 387 83l22 -13q-13 -166 -13 -307v-195
q0 -137 9 -187q10 -60 47.5 -91t100.5 -31q78 0 137 50q56 50 59 114q2 49 2 61v179q0 196 -15 230q-9 20 -42 25q-12 2 -88 5l-11 10v56l11 11q190 17 387 83l21 -13q-13 -150 -13 -307v-314q0 -211 12 -239q6 -14 20 -18q24 -7 104 -12l11 -10v-61zM621 1018zM621 -78z
M749 1119l-56 -30l-328 385l25 28l219 -29l140 -341v-13z" />
    <glyph glyph-name="ucircumflex" unicode="&#xfb;" horiz-adv-x="1251" 
d="M1201 5l-10 -10q-150 5 -189 5q-33 0 -98 -2.5t-97 -2.5l-8 8q8 82 8 156q-52 -39 -182 -166q-65 -25 -139 -25q-135 0 -213 73.5t-78 211.5q0 17 2 72t2 106v128q0 198 -15 230q-10 20 -43 25q-12 2 -88 5l-10 10v56l10 11q191 17 387 83l22 -13q-13 -166 -13 -307v-195
q0 -137 9 -187q10 -60 47.5 -91t100.5 -31q78 0 137 50q56 50 59 114q2 49 2 61v179q0 196 -15 230q-9 20 -42 25q-12 2 -88 5l-11 10v56l11 11q190 17 387 83l21 -13q-13 -150 -13 -307v-314q0 -211 12 -239q6 -14 20 -18q24 -7 104 -12l11 -10v-61zM621 1018zM621 -78z
M934 1120l-3 -10h-77l-233 241l-233 -241h-77l-3 10l225 362h176zM621 1441zM984 1229z" />
    <glyph glyph-name="udieresis" unicode="&#xfc;" horiz-adv-x="1251" 
d="M1201 5l-10 -10q-150 5 -189 5q-33 0 -98 -2.5t-97 -2.5l-8 8q8 82 8 156q-52 -39 -182 -166q-65 -25 -139 -25q-135 0 -213 73.5t-78 211.5q0 17 2 72t2 106v128q0 198 -15 230q-10 20 -43 25q-12 2 -88 5l-10 10v56l10 11q191 17 387 83l22 -13q-13 -166 -13 -307v-195
q0 -137 9 -187q10 -60 47.5 -91t100.5 -31q78 0 137 50q56 50 59 114q2 49 2 61v179q0 196 -15 230q-9 20 -42 25q-12 2 -88 5l-11 10v56l11 11q190 17 387 83l21 -13q-13 -150 -13 -307v-314q0 -211 12 -239q6 -14 20 -18q24 -7 104 -12l11 -10v-61zM621 1018zM621 -78z
M954 1252q0 -54 -38 -92.5t-91 -38.5t-91 38.5t-38 92.5t38 92.5t91 38.5t91 -37.5t38 -93.5zM546 1252q0 -54 -38 -92.5t-91 -38.5t-91 38.5t-38 92.5t38 92.5t91 38.5t91 -38t38 -93z" />
    <glyph glyph-name="utilde" unicode="&#x169;" horiz-adv-x="1251" 
d="M1201 5l-10 -10q-150 5 -189 5q-33 0 -98 -2.5t-97 -2.5l-8 8q8 82 8 156q-52 -39 -182 -166q-65 -25 -139 -25q-135 0 -213 73.5t-78 211.5q0 17 2 72t2 106v128q0 198 -15 230q-10 20 -43 25q-12 2 -88 5l-10 10v56l10 11q191 17 387 83l22 -13q-13 -166 -13 -307v-195
q0 -137 9 -187q10 -60 47.5 -91t100.5 -31q78 0 137 50q56 50 59 114q2 49 2 61v179q0 196 -15 230q-9 20 -42 25q-12 2 -88 5l-11 10v56l11 11q190 17 387 83l21 -13q-13 -150 -13 -307v-314q0 -211 12 -239q6 -14 20 -18q24 -7 104 -12l11 -10v-61zM621 1018zM621 -78z
M977 1382q-61 -240 -233 -240q-47 0 -160 56q-101 50 -135 50q-79 0 -114 -99h-63l-7 10q61 240 233 240q47 0 160 -56q101 -50 135 -50q79 0 114 99h63z" />
    <glyph glyph-name="ubreve" unicode="&#x16d;" horiz-adv-x="1251" 
d="M1201 5l-10 -10q-150 5 -189 5q-33 0 -98 -2.5t-97 -2.5l-8 8q8 82 8 156q-52 -39 -182 -166q-65 -25 -139 -25q-135 0 -213 73.5t-78 211.5q0 17 2 72t2 106v128q0 198 -15 230q-10 20 -43 25q-12 2 -88 5l-10 10v56l10 11q191 17 387 83l22 -13q-13 -166 -13 -307v-195
q0 -137 9 -187q10 -60 47.5 -91t100.5 -31q78 0 137 50q56 50 59 114q2 49 2 61v179q0 196 -15 230q-9 20 -42 25q-12 2 -88 5l-11 10v56l11 11q190 17 387 83l21 -13q-13 -150 -13 -307v-314q0 -211 12 -239q6 -14 20 -18q24 -7 104 -12l11 -10v-61zM621 1018zM621 -78z
M905 1412q-3 -123 -83 -206t-201 -83t-201 83t-83 206l10 10h60q35 -148 214 -148t214 148h60zM621 1422z" />
    <glyph glyph-name="uring" unicode="&#x16f;" horiz-adv-x="1251" 
d="M1201 5l-10 -10q-150 5 -189 5q-33 0 -98 -2.5t-97 -2.5l-8 8q8 82 8 156q-52 -39 -182 -166q-65 -25 -139 -25q-135 0 -213 73.5t-78 211.5q0 17 2 72t2 106v128q0 198 -15 230q-10 20 -43 25q-12 2 -88 5l-10 10v56l10 11q191 17 387 83l22 -13q-13 -166 -13 -307v-195
q0 -137 9 -187q10 -60 47.5 -91t100.5 -31q78 0 137 50q56 50 59 114q2 49 2 61v179q0 196 -15 230q-9 20 -42 25q-12 2 -88 5l-11 10v56l11 11q190 17 387 83l21 -13q-13 -150 -13 -307v-314q0 -211 12 -239q6 -14 20 -18q24 -7 104 -12l11 -10v-61zM621 1018zM621 -78z
M821 1277q0 -82 -56.5 -132t-143.5 -50t-142 49q-58 51 -58 133t58 133q55 48 142 48t142 -48q58 -51 58 -133zM723 1277q0 52 -27 87t-75 35t-75 -35t-27 -87t26 -86q28 -37 76 -37t76 37q26 34 26 86z" />
    <glyph glyph-name="uhungarumlaut" unicode="&#x171;" horiz-adv-x="1251" 
d="M1201 5l-10 -10q-150 5 -189 5q-33 0 -98 -2.5t-97 -2.5l-8 8q8 82 8 156q-52 -39 -182 -166q-65 -25 -139 -25q-135 0 -213 73.5t-78 211.5q0 17 2 72t2 106v128q0 198 -15 230q-10 20 -43 25q-12 2 -88 5l-10 10v56l10 11q191 17 387 83l22 -13q-13 -166 -13 -307v-195
q0 -137 9 -187q10 -60 47.5 -91t100.5 -31q78 0 137 50q56 50 59 114q2 49 2 61v179q0 196 -15 230q-9 20 -42 25q-12 2 -88 5l-11 10v56l11 11q190 17 387 83l21 -13q-13 -150 -13 -307v-314q0 -211 12 -239q6 -14 20 -18q24 -7 104 -12l11 -10v-61zM621 1018zM621 -78z
M1100 1474l-328 -385l-56 30v13l140 341l219 29zM767 1474l-328 -385l-56 30v13l140 341l219 29z" />
    <glyph glyph-name="umacron" unicode="&#x16b;" horiz-adv-x="1251" 
d="M1201 5l-10 -10q-150 5 -189 5q-33 0 -98 -2.5t-97 -2.5l-8 8q8 82 8 156q-52 -39 -182 -166q-65 -25 -139 -25q-135 0 -213 73.5t-78 211.5q0 17 2 72t2 106v128q0 198 -15 230q-10 20 -43 25q-12 2 -88 5l-10 10v56l10 11q191 17 387 83l22 -13q-13 -166 -13 -307v-195
q0 -137 9 -187q10 -60 47.5 -91t100.5 -31q78 0 137 50q56 50 59 114q2 49 2 61v179q0 196 -15 230q-9 20 -42 25q-12 2 -88 5l-11 10v56l11 11q190 17 387 83l21 -13q-13 -150 -13 -307v-314q0 -211 12 -239q6 -14 20 -18q24 -7 104 -12l11 -10v-61zM621 1018zM621 -78z
M944 1184h-646v126h646v-126z" />
    <glyph glyph-name="uogonek" unicode="&#x173;" horiz-adv-x="1251" 
d="M1201 5l-10 -10l-157 5q-128 -95 -128 -224q0 -132 138 -132q62 0 129 27l13 -5l7 -33l-6 -13q-34 -23 -84 -40q-58 -20 -128 -20q-98 0 -157 48q-62 51 -62 138q0 81 62 154q52 62 131 99l-45 -1q-87 -3 -97 -3l-8 8q8 82 8 156q-52 -39 -182 -166q-65 -25 -139 -25
q-137 0 -214 74.5t-77 210.5q0 17 2 72t2 106v128q0 199 -15 230q-10 20 -43 25q-13 2 -88 5l-10 10v56l10 11q191 17 387 83l22 -13q-13 -166 -13 -307v-195q0 -135 9 -187q10 -60 47.5 -91t100.5 -31q78 0 137 50q56 50 59 114q2 49 2 61v179q0 196 -15 230q-9 20 -42 25
q-13 2 -88 5l-11 10v56l11 11q190 17 387 83l21 -13q-13 -150 -13 -307v-314q0 -211 12 -239q6 -14 20 -18q24 -7 104 -12l11 -10v-61z" />
    <glyph glyph-name="wacute" unicode="&#x1e83;" horiz-adv-x="1706" 
d="M1679 874l-11 -10q-59 -2 -75 -8.5t-27.5 -23t-42.5 -100.5q-37 -100 -73 -208l-116 -348q-15 -44 -30 -98l-27 -95h-164l-109 268l-161 371q-138 -289 -246 -555l-34 -84h-162q-3 8 -18 76q-9 39 -25 97l-147 524q-33 116 -46 146q-10 20 -26 27.5t-97 10.5l-10 11v59
l11 10q78 -3 258 -3q184 0 274 3l11 -10v-60l-11 -9q-78 0 -104 -7t-26 -30q0 -21 10 -59l121 -461l240 534l54 127h102l283 -661l98 298q55 167 55 216q0 25 -17 31t-112 11l-11 10v59l12 11q75 -3 208 -3q98 0 180 3l11 -10v-60zM1151 1474l-328 -385l-56 30v13l140 341
l219 29z" />
    <glyph glyph-name="wgrave" unicode="&#x1e81;" horiz-adv-x="1706" 
d="M1679 874l-11 -10q-59 -2 -75 -8.5t-27.5 -23t-42.5 -100.5q-37 -100 -73 -208l-116 -348q-15 -44 -30 -98l-27 -95h-164l-109 268l-161 371q-138 -289 -246 -555l-34 -84h-162q-3 8 -18 76q-9 39 -25 97l-147 524q-33 116 -46 146q-10 20 -26 27.5t-97 10.5l-10 11v59
l11 10q78 -3 258 -3q184 0 274 3l11 -10v-60l-11 -9q-78 0 -104 -7t-26 -30q0 -21 10 -59l121 -461l240 534l54 127h102l283 -661l98 298q55 167 55 216q0 25 -17 31t-112 11l-11 10v59l12 11q75 -3 208 -3q98 0 180 3l11 -10v-60zM1023 1119l-56 -30l-328 385l25 28
l219 -29l140 -341v-13z" />
    <glyph glyph-name="wcircumflex" unicode="&#x175;" horiz-adv-x="1706" 
d="M1679 874l-11 -10q-59 -2 -75 -8.5t-27.5 -23t-42.5 -100.5q-37 -100 -73 -208l-116 -348q-15 -44 -30 -98l-27 -95h-164l-109 268l-161 371q-138 -289 -246 -555l-34 -84h-162q-3 8 -18 76q-9 39 -25 97l-147 524q-33 116 -46 146q-10 20 -26 27.5t-97 10.5l-10 11v59
l11 10q78 -3 258 -3q184 0 274 3l11 -10v-60l-11 -9q-78 0 -104 -7t-26 -30q0 -21 10 -59l121 -461l240 534l54 127h102l283 -661l98 298q55 167 55 216q0 25 -17 31t-112 11l-11 10v59l12 11q75 -3 208 -3q98 0 180 3l11 -10v-60zM1208 1120l-3 -10h-77l-233 241l-233 -241
h-77l-3 10l225 362h176zM895 1441zM1258 1229z" />
    <glyph glyph-name="wdieresis" unicode="&#x1e85;" horiz-adv-x="1706" 
d="M1679 874l-11 -10q-59 -2 -75 -8.5t-27.5 -23t-42.5 -100.5q-37 -100 -73 -208l-116 -348q-15 -44 -30 -98l-27 -95h-164l-109 268l-161 371q-138 -289 -246 -555l-34 -84h-162q-3 8 -18 76q-9 39 -25 97l-147 524q-33 116 -46 146q-10 20 -26 27.5t-97 10.5l-10 11v59
l11 10q78 -3 258 -3q184 0 274 3l11 -10v-60l-11 -9q-78 0 -104 -7t-26 -30q0 -21 10 -59l121 -461l240 534l54 127h102l283 -661l98 298q55 167 55 216q0 25 -17 31t-112 11l-11 10v59l12 11q75 -3 208 -3q98 0 180 3l11 -10v-60zM1228 1252q0 -54 -38 -92.5t-91 -38.5
t-91 38.5t-38 92.5t38 92.5t91 38.5t91 -37.5t38 -93.5zM820 1252q0 -54 -38 -92.5t-91 -38.5t-91 38.5t-38 92.5t38 92.5t91 38.5t91 -38t38 -93z" />
    <glyph glyph-name="yacute" unicode="&#xfd;" horiz-adv-x="1139" 
d="M1117 873l-9 -9q-66 0 -90 -38q-13 -22 -71 -147q-131 -285 -217 -498l-161 -398q-75 -185 -161 -263q-81 -73 -198 -73q-74 0 -143 35q17 71 35 199l26 5q52 -74 141 -74q105 0 193 205l41 96l-324 842q-28 73 -51.5 90.5t-92.5 18.5l-10 10v60l11 10q64 -3 245 -3
q168 0 273 3l10 -10v-60l-10 -10q-114 0 -114 -41q0 -18 10 -44l49 -137l146 -386l88 211q129 309 129 361q0 36 -116 36l-10 10v60l11 10q58 -3 196 -3q78 0 163 3l11 -10v-61zM811 -78zM580 1018zM836 1474l-328 -385l-56 30v13l140 341l219 29z" />
    <glyph glyph-name="ygrave" unicode="&#x1ef3;" horiz-adv-x="1139" 
d="M1117 873l-9 -9q-66 0 -90 -38q-13 -22 -71 -147q-131 -285 -217 -498l-161 -398q-75 -185 -161 -263q-81 -73 -198 -73q-74 0 -143 35q17 71 35 199l26 5q52 -74 141 -74q105 0 193 205l41 96l-324 842q-28 73 -51.5 90.5t-92.5 18.5l-10 10v60l11 10q64 -3 245 -3
q168 0 273 3l10 -10v-60l-10 -10q-114 0 -114 -41q0 -18 10 -44l49 -137l146 -386l88 211q129 309 129 361q0 36 -116 36l-10 10v60l11 10q58 -3 196 -3q78 0 163 3l11 -10v-61zM811 -78zM580 1018zM708 1119l-56 -30l-328 385l25 28l219 -29l140 -341v-13z" />
    <glyph glyph-name="ycircumflex" unicode="&#x177;" horiz-adv-x="1139" 
d="M1117 873l-9 -9q-66 0 -90 -38q-13 -22 -71 -147q-131 -285 -217 -498l-161 -398q-75 -185 -161 -263q-81 -73 -198 -73q-74 0 -143 35q17 71 35 199l26 5q52 -74 141 -74q105 0 193 205l41 96l-324 842q-28 73 -51.5 90.5t-92.5 18.5l-10 10v60l11 10q64 -3 245 -3
q168 0 273 3l10 -10v-60l-10 -10q-114 0 -114 -41q0 -18 10 -44l49 -137l146 -386l88 211q129 309 129 361q0 36 -116 36l-10 10v60l11 10q58 -3 196 -3q78 0 163 3l11 -10v-61zM811 -78zM580 1018zM893 1120l-3 -10h-77l-233 241l-233 -241h-77l-3 10l225 362h176z
M580 1441zM943 1229z" />
    <glyph glyph-name="ydieresis" unicode="&#xff;" horiz-adv-x="1139" 
d="M1117 873l-9 -9q-66 0 -90 -38q-13 -22 -71 -147q-131 -285 -217 -498l-161 -398q-75 -185 -161 -263q-81 -73 -198 -73q-74 0 -143 35q17 71 35 199l26 5q52 -74 141 -74q105 0 193 205l41 96l-324 842q-28 73 -51.5 90.5t-92.5 18.5l-10 10v60l11 10q64 -3 245 -3
q168 0 273 3l10 -10v-60l-10 -10q-114 0 -114 -41q0 -18 10 -44l49 -137l146 -386l88 211q129 309 129 361q0 36 -116 36l-10 10v60l11 10q58 -3 196 -3q78 0 163 3l11 -10v-61zM811 -78zM580 1018zM913 1252q0 -54 -38 -92.5t-91 -38.5t-91 38.5t-38 92.5t38 92.5t91 38.5
t91 -37.5t38 -93.5zM505 1252q0 -54 -38 -92.5t-91 -38.5t-91 38.5t-38 92.5t38 92.5t91 38.5t91 -38t38 -93z" />
    <glyph glyph-name="zacute" unicode="&#x17a;" 
d="M948 308q-22 -205 -22 -308l-7 -7q-320 8 -477 8q-124 0 -396 -8l-11 10v57q103 114 557 771h-117q-228 0 -249 -18q-12 -11 -18 -51q-2 -16 -13 -80l-2 -14l-11 -10h-59l-11 10q8 178 8 208q0 31 -1 61l9 9q33 -2 100 -4q21 -1 245 -3l145 -1q66 0 299 7l10 -11v-61
l-181 -245l-157 -220l-133 -191q-52 -75 -74 -110l108 -2q59 -1 195 5q122 5 135.5 17t45.5 181l11 10h60zM792 1474l-328 -385l-56 30v13l140 341l219 29z" />
    <glyph glyph-name="zcaron" unicode="&#x17e;" 
d="M948 308q-22 -205 -22 -308l-7 -7q-320 8 -477 8q-124 0 -396 -8l-11 10v57q103 114 557 771h-117q-228 0 -249 -18q-12 -11 -18 -51q-2 -16 -13 -80l-2 -14l-11 -10h-59l-11 10q8 178 8 208q0 31 -1 61l9 9q33 -2 100 -4q21 -1 245 -3l145 -1q66 0 299 7l10 -11v-61
l-181 -245l-157 -220l-133 -191q-52 -75 -74 -110l108 -2q59 -1 195 5q122 5 135.5 17t45.5 181l11 10h60zM836 1472l-225 -362h-176l-225 362l3 10h77l233 -241l233 241h77z" />
    <glyph glyph-name="zdotaccent" unicode="&#x17c;" 
d="M948 308q-22 -205 -22 -308l-7 -7q-320 8 -477 8q-124 0 -396 -8l-11 10v57q103 114 557 771h-117q-228 0 -249 -18q-12 -11 -18 -51q-2 -16 -13 -80l-2 -14l-11 -10h-59l-11 10q8 178 8 208q0 31 -1 61l9 9q33 -2 100 -4q21 -1 245 -3l145 -1q66 0 299 7l10 -11v-61
l-181 -245l-157 -220l-133 -191q-52 -75 -74 -110l108 -2q59 -1 195 5q122 5 135.5 17t45.5 181l11 10h60zM652 1252q0 -54 -38 -92.5t-91 -38.5t-91 38.5t-38 92.5t38 92.5t91 38.5t91 -37.5t38 -93.5z" />
    <glyph glyph-name="uni0292" unicode="&#x292;" horiz-adv-x="1104" 
d="M1026 -18q0 -84 -44 -178q-38 -82 -94 -139q-111 -114 -260 -163q-172 -57 -300 -55q-140 2 -206 37l-51 126q-18 40 -59 101l-2 20l40 43l20 -4q33 -37 118 -122q118 -108 248 -110q132 -2 234 110q79 87 79 255q0 166 -83 234q-66 54 -170 56q-43 1 -100 -15l-26 50
l170 252q50 74 137 220q-160 -6 -255 -6q-120 0 -132 -2q-43 -7 -64 -30q-17 -18 -54 -112l-19 -12l-45 2l-12 12l55 198q11 38 48 211q113 -10 348 -20q245 -2 436 21l9 -59l-253 -305l-229 -298q87 14 148 13q176 -3 267 -88q101 -95 101 -243z" />
    <glyph glyph-name="eng" unicode="&#x14b;" horiz-adv-x="1236" 
d="M1070 221q2 -348 -52 -494q-74 -199 -226 -257q-63 -24 -122 -24q-16 0 -38 3l-22 72l10 14q18 -2 30 -2q135 0 155 191q11 106 11 469q0 345 -2 383q-8 126 -51 166q-49 45 -123 45q-89 0 -138.5 -57.5t-49.5 -112.5v-277q0 -169 13 -228q8 -35 116 -37l10 -10v-61
l-10 -10q-85 6 -254 6q-179 0 -273 -7l-10 10v61l10 10q96 3 119 15q20 9 22 48q7 130 7 279v143q0 200 -15 230q-10 20 -43 25q-12 2 -87 5l-10 10v56l10 11q180 17 379 83l22 -13l-2 -168l172 144q66 27 145 27q148 0 226 -83q71 -76 71 -240v-425z" />
    <glyph glyph-name="thorn" unicode="&#xfe;" horiz-adv-x="1251" 
d="M1156 580q0 -122 -44 -235q-32 -81 -84 -139q-23 -25 -86 -72l-165 -128q-59 -39 -150 -39q-87 0 -174 32v-163q0 -105 7 -235q2 -37 21 -48t138 -15l11 -10v-61l-10 -10q-95 7 -292 7q-173 0 -267 -7l-10 10v61l10 10q93 3 113 14.5t22 48.5q7 130 7 455v871
q0 210 -7 340q-2 37 -22 48.5t-116 14.5l-11 11v55l10 11q191 20 387 83l22 -12q0 -27 -3 -99q-10 -239 -10 -401v-189q37 29 92 76q99 85 150 97q31 7 82 7q180 0 281 -108q98 -104 98 -281zM899 457q0 218 -115 294q-61 40 -127 40q-123 0 -204 -101v-496q91 -96 200 -96
q163 0 218 169q28 85 28 190z" />
    <glyph glyph-name="eth" unicode="&#xf0;" horiz-adv-x="1139" 
d="M662 1333l266 125l14 -6l28 -57l-5 -15l-231 -108q159 -144 244.5 -327.5t85.5 -389.5q0 -167 -57.5 -304t-181 -216t-285.5 -79q-138 0 -245.5 58.5t-163 167t-55.5 280.5q0 88 18.5 176t74.5 164.5t153 127t226 50.5q73 0 129 -18q-37 125 -123 225l-270 -127l-13 5
l-28 61l5 14l243 113q-88 82 -189 136l-2 16l69 90l17 4q190 -96 276 -166zM582 59q99 0 149.5 98t50.5 311q0 127 -19.5 216t-69.5 142.5t-133 53.5q-74 0 -122 -45t-63 -127.5t-15 -208.5q0 -244 62 -342t160 -98z" />
    <glyph glyph-name="germandbls" unicode="&#xdf;" horiz-adv-x="1251" 
d="M1154 350q0 -130 -95 -225q-127 -127 -198 -150q-50 -16 -103 -16q-110 0 -166 51l-8 -16q-128 6 -249 6q-70 0 -262 -6l-10 10v60l11 10q94 3 114 14.5t22 48.5q7 130 7 455v168h-40q-12 0 -45 -2t-52 -2l-10 10v25l7 14q102 61 133 90q1 137 10 188q11 58 48.5 113.5
t148.5 143.5q109 85 176 114.5t157 29.5q147 0 230.5 -79t83.5 -213q0 -124 -36 -257q-25 -92 -25 -104l-26 -15q-60 38 -107 38q-42 0 -72 -24t-30 -62q0 -40 36.5 -72t158.5 -101q142 -80 173 -145q18 -38 18 -100zM952 205q0 80 -150 171q-86 52 -93 57q-30 20 -59 49
q-61 62 -61 156q0 136 180 283q46 38 132 38q15 72 15 141q0 139 -100 209q-54 38 -130 38q-85 0 -142.5 -47.5t-68.5 -114.5q-12 -73 -12 -235v-632q0 -191 13.5 -217t113.5 -26q6 17 10 63q5 57 9 78l9 11l46 8l11 -10l6 -93q57 -56 129 -56q63 0 102.5 36.5t39.5 92.5z
" />
    <glyph glyph-name="S_S.dlig" horiz-adv-x="2502" 
d="M1144 462q0 -165 -94 -291q-82 -111 -215 -165q-122 -50 -291 -50q-210 0 -412 96l-12 22q28 115 28 327l10 10h64l9 -10v-23q0 -56 12 -148q36 -64 129 -110q97 -48 202 -48q198 0 274 138q39 71 39 147q0 128 -107 183q-53 27 -171 45q-267 41 -351 103
q-127 94 -127 291q0 205 138 327q146 128 406 128q234 0 378 -75l7 -24q-24 -119 -29 -286l-11 -10h-63l-10 10q-3 120 -10 156q-31 47 -108 80q-82 34 -171 34q-134 0 -212 -71q-73 -67 -73 -173q0 -115 83 -169q54 -35 255 -67q21 -3 117 -20q59 -10 109 -29
q101 -38 152 -116q55 -85 55 -212zM2395 462q0 -165 -94 -291q-82 -111 -215 -165q-122 -50 -291 -50q-210 0 -412 96l-12 22q28 115 28 327l10 10h64l9 -10v-23q0 -56 12 -148q36 -64 129 -110q97 -48 202 -48q198 0 274 138q39 71 39 147q0 128 -107 183q-53 27 -171 45
q-267 41 -351 103q-127 94 -127 291q0 205 138 327q146 128 406 128q234 0 378 -75l7 -24q-24 -119 -29 -286l-11 -10h-63l-10 10q-3 120 -10 156q-31 47 -108 80q-82 34 -171 34q-134 0 -212 -71q-73 -67 -73 -173q0 -115 83 -169q54 -35 255 -67q21 -3 117 -20
q59 -10 109 -29q101 -38 152 -116q55 -85 55 -212z" />
    <glyph glyph-name="IJ" unicode="&#x132;" horiz-adv-x="1557" 
d="M716 4l-9 -10q-100 6 -309 6q-208 0 -308 -6l-9 10v67l10 10q102 6 117 10q29 8 34 37q13 72 13 310v529q0 238 -13 310q-5 29 -34 37q-15 4 -117 10l-10 10v68l10 9q96 -6 308 -6q211 0 307 6l10 -9v-68l-10 -10q-102 -6 -117 -10q-29 -8 -34 -37q-13 -72 -13 -310v-529
q0 -238 13 -310q5 -29 34 -37q15 -4 117 -10l10 -10v-67zM398 1468zM398 -78zM1501 1333l-10 -9q-102 -6 -117 -10q-29 -8 -34 -37q-13 -73 -13 -310v-744q0 -201 -43 -313q-49 -128 -176 -239q-139 -122 -266 -122q-42 0 -82 15q5 75 5 185l23 14q81 -73 143 -73
q86 0 96 91q13 118 13 354v832q0 237 -13 310q-5 29 -34 37q-7 2 -140 10l-10 10v68l10 9q138 -6 330 -6q218 0 308 6l10 -9v-69z" />
    <glyph glyph-name="Q_u.dlig" horiz-adv-x="2957" 
d="M2907 5l-10 -10q-150 5 -189 5q-33 0 -98 -2.5t-97 -2.5l-8 8q8 82 8 156q-52 -39 -182 -166q-65 -25 -139 -25q-137 0 -214 74.5t-77 210.5q0 30 2 89t2 89v128q0 198 -15 230q-10 20 -43 25q-12 2 -88 5l-10 10v56l10 11q191 17 387 83l22 -13q-13 -166 -13 -307v-195
q0 -118 3 -147q10 -95 53 -130q38 -32 101 -32q72 0 131 45q62 49 65 119q2 49 2 61v179q0 196 -15 230q-9 20 -42 25q-12 2 -88 5l-11 10v56l11 11q190 17 387 83l21 -13q-13 -150 -13 -307v-314q0 -211 12 -239q10 -24 124 -30l11 -10v-61zM2718 -106l-158 -281
q-144 -138 -433 -138q-213 0 -732 147.5t-643 147.5q-123 0 -206 -63q-62 -47 -124 -151l-45 49l158 280q108 68 246 72q-319 11 -509 211q-178 187 -178 516q0 358 211 557q206 193 567 193q450 0 642 -304q98 -155 98 -391q0 -224 -84 -397q-93 -191 -277 -290
q-154 -83 -388 -96q165 0 618 -104t729 -104q205 0 302 43q88 39 161 152zM1304 687q0 290 -116.5 460.5t-341.5 170.5q-297 0 -394 -267q-50 -137 -50 -307q0 -309 114 -488q118 -185 353 -185q285 0 383 281q52 149 52 335z" />
    <glyph glyph-name="T_h.dlig" horiz-adv-x="2389" 
d="M2346 4l-10 -11q-110 7 -186 7q-70 0 -204 -7l-10 10q18 223 18 344v196q0 244 -176 244q-88 0 -138 -55.5t-50 -143.5v-118q0 -201 7 -333q2 -38 22 -48q25 -12 119 -15l11 -10v-61l-10 -10q-95 7 -274 7t-273 -7l-10 10v61l10 10q94 3 119 15q20 10 22 48q7 132 7 455
v335q0 210 -7 340q-2 38 -22 49q-14 8 -32 8q-17 0 -50 -11q-87 -29 -266 -29h-134q-2 -35 -2 -278v-568q0 -237 13 -310q5 -29 34 -37q15 -4 117 -10l10 -10v-67l-10 -10q-99 6 -308 6q-214 0 -308 -6l-9 9v68l10 10q102 6 117 10q29 8 34 37q13 73 13 310v568
q0 247 -3 278h-143q-179 0 -209 -11q-17 -6 -22 -15q-19 -32 -24 -173l-10 -10h-63l-11 10l-2 171q-1 71 -12 149l9 10q59 -10 430 -10h648q99 0 252 32q105 22 202 53l21 -12q0 -27 -3 -99q-10 -239 -10 -529v-56l176 148q66 27 145 27q302 0 302 -325q0 -52 -4 -156.5
t-4 -156.5q0 -228 28 -245q18 -11 104 -13l9 -10v-59z" />
    <glyph glyph-name="c_h.dlig" horiz-adv-x="2126" 
d="M2083 4l-10 -11q-110 7 -186 7q-70 0 -204 -7l-10 10q18 223 18 344v196q0 244 -176 244q-94 0 -146 -65q-42 -52 -42 -134v-118q0 -203 7 -333q3 -48 51 -59q8 -2 90 -4l11 -10v-61l-10 -10q-95 7 -274 7t-273 -7l-10 10v61l10 10q82 2 90 4q48 11 51 59q7 130 7 455
v335q0 210 -7 340q-2 37 -22 48.5t-116 14.5l-10 11v55l10 11q193 21 387 83l21 -12q0 -27 -3 -99q-10 -239 -10 -529v-56l176 148q66 27 145 27q159 0 238 -96q64 -78 64 -229q0 -17 -4 -122t-4 -191q0 -228 28 -245q18 -11 104 -13l9 -10v-59zM861 126l-44 -99
q-136 -71 -268 -71q-223 0 -341 128t-118 351q0 206 91 313q25 30 95 79q128 90 159 106q74 36 182 36q136 0 225 -41l10 -18q-1 -13 -14 -93l-11 -68q-3 -17 -9 -134l-10 -10h-60l-10 10q-6 89 -14 124q-44 78 -169 78q-212 0 -212 -275q0 -182 72 -297q87 -137 258 -137
q96 0 169 41z" />
    <glyph glyph-name="c_k.dlig" horiz-adv-x="2113" 
d="M2092 3l-10 -10q-67 4 -163 4q-89 0 -176 -4q-56 102 -271 339q-113 125 -144 147l7 -342q3 -48 51 -59q8 -2 90 -4l11 -10v-61l-10 -10q-95 7 -274 7t-273 -7l-10 10v61l10 10q82 2 90 4q48 11 51 59q7 130 7 455v335q0 210 -7 340q-2 37 -22 48.5t-116 14.5l-10 11v55
l10 11q193 21 387 83l21 -12q0 -27 -3 -99q-10 -239 -10 -529v-327l99 81q65 53 182 177l104 110q29 31 46 54q85 -3 138 -3q67 0 121 3l10 -10v-60l-10 -10l-73 -4q-44 -2 -91 -35q-18 -13 -76 -60l-84 -69l-30 -28l-85 -76l214 -250l117 -135q98 -108 128 -123
q21 -10 44 -10l10 -11v-61zM861 126l-44 -99q-136 -71 -268 -71q-223 0 -341 128t-118 351q0 206 91 313q25 30 95 79q128 90 159 106q74 36 182 36q136 0 225 -41l10 -18q-1 -13 -14 -93l-11 -68q-3 -17 -9 -134l-10 -10h-60l-10 10q-6 89 -14 124q-44 78 -169 78
q-212 0 -212 -275q0 -182 72 -297q87 -137 258 -137q96 0 169 41z" />
    <glyph glyph-name="c_t.hlig" horiz-adv-x="1584" 
d="M1568 131q-6 -7 -43 -42q-58 -55 -101 -102q-49 -16 -99 -16q-139 0 -203 81q-47 60 -45 225l3 239v250h-27l-53 -2h-41l-11 9v26l8 15q43 26 124 83v136q0 109 3 174l-110 39q-54 18 -96 18q-97 0 -150 -71q-37 -49 -37 -127q0 -72 68 -121q30 -21 69 -35l10 -18
q0 -3 -9 -65l-11 -78q-3 -24 -9 -134l-10 -10h-60l-10 10q-6 89 -14 124q-44 78 -159 78q-212 0 -212 -275q0 -182 72 -297q87 -137 258 -137q96 0 169 41l19 -23l-44 -99q-136 -71 -268 -71q-222 0 -342 129q-117 126 -117 350q0 206 91 313q25 30 95 79q129 91 160 106
q74 36 183 36h20q14 -1 19 -1q-52 66 -52 145q0 125 71 214q80 101 190 101q89 0 155 -42q24 -15 140 -106q41 -32 79 -32q41 0 94 49l34 -20q-29 -83 -35 -203l-9 -173h33q109 0 188 7l11 -11l-14 -117l-10 -10h-208v-339q0 -160 4 -192q12 -94 118 -94q41 0 99 22z" />
    <glyph glyph-name="glyph286" horiz-adv-x="1331" 
d="M1315 131q-7 -8 -43 -42q-59 -55 -101 -102q-49 -16 -99 -16q-139 0 -203 81q-27 35 -36 81q-10 55 -9 144l3 239v254h-380v-178q0 -454 14 -485q7 -16 29 -23.5t106 -9.5l10 -10v-61l-10 -10l-74 3q-106 4 -200 4q-159 0 -253 -7l-10 10v61l10 10q80 3 99.5 14.5
t21.5 48.5q7 130 7 455v178q-21 1 -67 -2l-53 -3l-10 10v31l9 14l75 46q34 21 40 28t6 19v15q0 154 20 210q11 30 42 68q9 11 130 126l62 59q27 27 68 64q55 40 134 40q33 0 76 -14q-2 -33 -4 -107q-1 -41 2 -100l-31 -18q-48 50 -122 50q-54 0 -83 -22t-36.5 -65.5
t-7.5 -181.5v-140h380v136q0 85 -8 180q75 24 121.5 42.5t131.5 60.5l26 -20q-12 -124 -17 -222l-9 -173h33q109 0 188 7l11 -11l-14 -117l-10 -10h-208v-339q0 -163 4 -192q5 -42 35.5 -68t82.5 -26q41 0 99 22z" />
    <glyph glyph-name="glyph287" horiz-adv-x="1961" 
d="M1945 131q-7 -8 -43 -42q-59 -55 -101 -102q-49 -16 -99 -16q-139 0 -203 81q-27 35 -36 81q-10 55 -9 144l3 239v254h-380v-178q0 -454 14 -485q7 -16 29 -23.5t106 -9.5l10 -10v-61l-10 -10l-74 3q-106 4 -200 4q-159 0 -253 -7l-10 10v61l10 10q80 3 99.5 14.5
t21.5 48.5q7 130 7 455v178h-380v-178q0 -454 14 -485q7 -16 29 -23.5t106 -9.5l10 -10v-61l-10 -10l-74 3q-106 4 -200 4q-159 0 -253 -7l-10 10v61l10 10q80 3 99.5 14.5t21.5 48.5q7 130 7 455v178q-21 1 -67 -2l-53 -3l-10 10v31l9 14l75 46q34 21 40 28t6 19v15
q0 154 20 210q11 30 42 68q9 11 130 126l62 59q27 27 68 64q55 40 134 40q33 0 76 -14q-2 -33 -4 -107q-1 -41 2 -100l-31 -18q-48 50 -122 50q-54 0 -83 -22t-36.5 -65.5t-7.5 -181.5v-140h380v31q0 154 20 210q11 30 42 68q9 11 130 126l62 59q27 27 68 64q55 40 134 40
q33 0 76 -14q-2 -33 -4 -107q-1 -41 2 -100l-31 -18q-48 50 -122 50q-54 0 -83 -22t-36.5 -65.5t-7.5 -181.5v-140h380v136q0 85 -8 180q75 24 121.5 42.5t131.5 60.5l26 -20q-12 -124 -17 -222l-9 -173h33q109 0 188 7l11 -11l-14 -117l-10 -10h-208v-339q0 -163 4 -192
q5 -42 35.5 -68t82.5 -26q41 0 99 22z" />
    <glyph glyph-name="ij" unicode="&#x133;" horiz-adv-x="1306" 
d="M487 1308q0 -64 -45 -109.5t-108 -45.5q-64 0 -109 45.5t-45 109.5q0 66 45.5 111t108.5 45q62 0 107.5 -45t45.5 -111zM625 3l-10 -10q-95 7 -274 7t-273 -7l-10 10v61l10 10q96 3 119 15q20 9 22 48q7 130 7 279v143q0 194 -15 230q-8 20 -43 25q-12 2 -87 5l-10 10v56
l10 11q192 17 387 83l21 -13q-13 -182 -13 -307v-319q0 -73 7 -203q2 -39 22 -48q23 -12 119 -15l11 -10v-61zM341 -78zM1107 1308q0 -64 -45 -109.5t-108 -45.5q-64 0 -109 45.5t-45 109.5t45.5 110t108.5 46q62 0 107.5 -45t45.5 -111zM1100 966q-13 -64 -13 -307v-170
l2 -294q2 -328 -56 -476q-78 -197 -225 -251q-60 -22 -119 -22q-17 0 -38 3l-22 72l10 14q18 -2 30 -2q105 0 138 106q30 98 30 510v410q0 179 -13 223q-7 25 -40 31q-15 3 -93 6l-10 10v56l10 11q191 17 387 83z" />
    <glyph glyph-name="longs" unicode="&#x17f;" horiz-adv-x="797" 
d="M780 1481l-4 -107l2 -100l-31 -18q-48 50 -122 50q-116 0 -130 -89q-7 -45 -7 -180v-445q0 -454 14 -485q11 -25 77 -31l88 -2l10 -10v-61l-10 -10l-74 3q-106 4 -230 4q-179 0 -273 -7l-10 10v61l10 10q82 2 90 4q48 11 51 59q7 130 7 455v178q-22 1 -27 1q-11 0 -58 -3
q-23 -1 -63 -3l-10 10v31l9 14l89 46q26 12 55 29q5 6 5 18v15q0 154 20 210q11 30 42 68q9 11 130 126l62 59q27 27 69 64q55 40 134 40q42 0 85 -14z" />
    <glyph glyph-name="longs_i.hlig" horiz-adv-x="1248" 
d="M1107 1308q0 -64 -45 -109.5t-108 -45.5q-64 0 -109 45.5t-45 109.5q0 65 44.5 110.5t109.5 45.5t109 -45.5t44 -110.5zM1216 3l-10 -10q-95 7 -264 7t-263 -7l-10 10v61l10 10q89 3 109 14.5t22 48.5q7 130 7 279v143q0 194 -15 230q-8 20 -43 25q-12 2 -87 5l-10 10v56
l10 11q192 17 387 83l21 -13q-13 -182 -13 -307v-319q0 -73 7 -203q2 -37 22 -48.5t109 -14.5l11 -10v-61zM729 1481q-2 -33 -4 -107q-1 -41 2 -100l-31 -18q-48 50 -122 50q-54 0 -83 -22q-36 -27 -43 -117q-1 -8 -1 -130v-445q0 -454 14 -485q7 -16 29 -23.5t106 -9.5
l10 -10v-61l-10 -10l-74 3q-106 4 -200 4q-159 0 -253 -7l-10 10v61l10 10q80 3 99.5 14.5t21.5 48.5q7 130 7 455v178q-21 1 -67 -2l-53 -3l-10 10v31l9 14l75 46q34 21 40 28t6 19v15q0 154 20 210q11 30 42 68q9 11 130 126l62 59q27 27 68 64q55 40 134 40q33 0 76 -14z
" />
    <glyph glyph-name="longs_l.hlig" horiz-adv-x="1248" 
d="M1216 3l-10 -10q-95 7 -264 7t-263 -7l-10 10v61l10 10q89 3 109 14.5t22 48.5q7 130 7 455v335q0 210 -7 340q-2 37 -20 47.5t-65 13.5l2 -54l-31 -18q-48 50 -122 50q-54 0 -83 -22q-36 -27 -43 -117q-1 -8 -1 -130v-445q0 -454 14 -485q7 -16 29 -23.5t106 -9.5
l10 -10v-61l-10 -10l-74 3q-106 4 -200 4q-159 0 -253 -7l-10 10v61l10 10q80 3 99.5 14.5t21.5 48.5q7 130 7 455v178q-21 1 -67 -2l-53 -3l-10 10v31l9 14l75 46q34 21 40 28t6 19v15q0 154 20 210q11 30 42 68q9 11 130 126l62 59q27 27 68 64q55 40 134 40q33 0 76 -14
q-1 -17 -3 -69q30 4 115 19q79 14 218 59l21 -12q0 -27 -3 -99q-10 -239 -10 -529v-258q0 -325 7 -455q2 -37 22 -48.5t109 -14.5l11 -10v-61z" />
    <glyph glyph-name="longs_longs.hlig" horiz-adv-x="1366" 
d="M1349 1481q-2 -33 -4 -107q-1 -41 2 -100l-31 -18q-48 50 -122 50q-54 0 -83 -22q-36 -27 -43 -117q-1 -8 -1 -130v-445q0 -454 14 -485q7 -16 29 -23.5t106 -9.5l10 -10v-61l-10 -10l-74 3q-106 4 -200 4q-159 0 -253 -7l-10 10v61l10 10q80 3 99.5 14.5t21.5 48.5
q7 130 7 455v178q-21 1 -67 -2l-53 -3l-10 10v31l9 14l75 46q34 21 40 28t6 19v15q0 154 20 210q11 30 42 68q9 11 130 126l62 59q27 27 68 64q55 40 134 40q33 0 76 -14zM729 1481q-2 -33 -4 -107q-1 -41 2 -100l-31 -18q-48 50 -122 50q-54 0 -83 -22q-36 -27 -43 -117
q-1 -8 -1 -130v-445q0 -454 14 -485q7 -16 29 -23.5t106 -9.5l10 -10v-61l-10 -10l-74 3q-106 4 -200 4q-159 0 -253 -7l-10 10v61l10 10q80 3 99.5 14.5t21.5 48.5q7 130 7 455v178q-21 1 -67 -2l-53 -3l-10 10v31l9 14l75 46q34 21 40 28t6 19v15q0 154 20 210
q11 30 42 68q9 11 130 126l62 59q27 27 68 64q55 40 134 40q33 0 76 -14z" />
    <glyph glyph-name="longs_longs_i.hlig" horiz-adv-x="1868" 
d="M1728 1308q0 -64 -45 -109.5t-108 -45.5q-64 0 -109 45.5t-45 109.5q0 65 44.5 110.5t109.5 45.5t109 -45.5t44 -110.5zM1836 3l-10 -10q-95 7 -264 7t-263 -7l-10 10v61l10 10q89 3 109 14.5t22 48.5q7 130 7 279v143q0 194 -15 230q-8 20 -43 25q-12 2 -87 5l-10 10v56
l10 11q192 17 387 83l21 -13q-13 -182 -13 -307v-319q0 -73 7 -203q2 -37 22 -48.5t109 -14.5l11 -10v-61zM1349 1481q-2 -33 -4 -107q-1 -41 2 -100l-31 -18q-48 50 -122 50q-54 0 -83 -22q-36 -27 -43 -117q-1 -8 -1 -130v-445q0 -454 14 -485q7 -16 29 -23.5t106 -9.5
l10 -10v-61l-10 -10l-74 3q-106 4 -200 4q-159 0 -253 -7l-10 10v61l10 10q80 3 99.5 14.5t21.5 48.5q7 130 7 455v178q-21 1 -67 -2l-53 -3l-10 10v31l9 14l75 46q34 21 40 28t6 19v15q0 154 20 210q11 30 42 68q9 11 130 126l62 59q27 27 68 64q55 40 134 40q33 0 76 -14z
M729 1481q-2 -33 -4 -107q-1 -41 2 -100l-31 -18q-48 50 -122 50q-54 0 -83 -22q-36 -27 -43 -117q-1 -8 -1 -130v-445q0 -454 14 -485q7 -16 29 -23.5t106 -9.5l10 -10v-61l-10 -10l-74 3q-106 4 -200 4q-159 0 -253 -7l-10 10v61l10 10q80 3 99.5 14.5t21.5 48.5
q7 130 7 455v178q-21 1 -67 -2l-53 -3l-10 10v31l9 14l75 46q34 21 40 28t6 19v15q0 154 20 210q11 30 42 68q9 11 130 126l62 59q27 27 68 64q55 40 134 40q33 0 76 -14z" />
    <glyph glyph-name="longs_longs_l.hlig" horiz-adv-x="1868" 
d="M1836 3l-10 -10q-95 7 -264 7t-263 -7l-10 10v61l10 10q89 3 109 14.5t22 48.5q7 130 7 455v335q0 210 -7 340q-2 37 -20 47.5t-65 13.5l2 -54l-31 -18q-48 50 -122 50q-54 0 -83 -22q-36 -27 -43 -117q-1 -8 -1 -130v-445q0 -454 14 -485q7 -16 29 -23.5t106 -9.5
l10 -10v-61l-10 -10l-74 3q-106 4 -200 4q-159 0 -253 -7l-10 10v61l10 10q80 3 99.5 14.5t21.5 48.5q7 130 7 455v178q-21 1 -67 -2l-53 -3l-10 10v31l9 14l75 46q34 21 40 28t6 19v15q0 154 20 210q11 30 42 68q9 11 130 126l62 59q27 27 68 64q55 40 134 40q33 0 76 -14
q-1 -17 -3 -69q30 4 115 19q79 14 218 59l21 -12q0 -27 -3 -99q-10 -239 -10 -529v-258q0 -325 7 -455q2 -37 22 -48.5t109 -14.5l11 -10v-61zM729 1481q-2 -33 -4 -107q-1 -41 2 -100l-31 -18q-48 50 -122 50q-54 0 -83 -22q-36 -27 -43 -117q-1 -8 -1 -130v-445
q0 -454 14 -485q7 -16 29 -23.5t106 -9.5l10 -10v-61l-10 -10l-74 3q-106 4 -200 4q-159 0 -253 -7l-10 10v61l10 10q80 3 99.5 14.5t21.5 48.5q7 130 7 455v178q-21 1 -67 -2l-53 -3l-10 10v31l9 14l75 46q34 21 40 28t6 19v15q0 154 20 210q11 30 42 68q9 11 130 126
l62 59q27 27 68 64q55 40 134 40q33 0 76 -14z" />
    <glyph glyph-name="uniFB05" unicode="&#xfb05;" horiz-adv-x="1321" 
d="M1305 131q-7 -8 -43 -42q-59 -56 -101 -102q-49 -16 -99 -16q-139 0 -203 81q-27 35 -36 81q-10 55 -9 144l3 239v250h-27l-53 -2h-41l-11 9v26l8 15l56 36q45 28 68 47v136q0 85 -8 180q75 24 121.5 42.5t131.5 60.5l26 -20q-12 -124 -17 -222l-9 -173h33q109 0 188 7
l11 -11l-14 -117l-10 -10h-208v-339q0 -169 -2 -135q5 -94 40 -124q32 -27 84 -27q41 0 99 22zM729 1481q-2 -33 -4 -107q-1 -41 2 -100l-31 -18q-48 50 -122 50q-54 0 -83 -22q-36 -27 -43 -117q-1 -8 -1 -130v-445q0 -454 14 -485q7 -16 29 -23.5t106 -9.5l10 -10v-61
l-10 -10l-74 3q-106 4 -200 4q-159 0 -253 -7l-10 10v61l10 10q80 3 99.5 14.5t21.5 48.5q7 130 7 455v178q-21 1 -67 -2l-53 -3l-10 10v31l9 14l75 46q34 21 40 28t6 19v15q0 154 20 210q11 30 42 68q9 11 130 126l62 59q27 27 68 64q55 40 134 40q33 0 76 -14z" />
    <glyph glyph-name="longs_b.hlig" horiz-adv-x="1880" 
d="M1774 575q0 -181 -86 -313q-37 -57 -67 -80t-127 -91l-113 -80q-48 -34 -109 -47q-38 -8 -85 -8q-118 0 -251 83l-93 -75l-45 16q19 318 19 554v393q0 52 -5 242q-1 53 -5 95q-5 52 -53 61q-12 2 -29 3l2 -54l-31 -18q-48 50 -122 50q-54 0 -83 -22q-36 -27 -43 -117
q-1 -8 -1 -130v-445q0 -454 14 -485q7 -16 29 -23.5t106 -9.5l10 -10v-61l-10 -10l-74 3q-106 4 -200 4q-159 0 -253 -7l-10 10v61l10 10q80 3 99.5 14.5t21.5 48.5q7 130 7 455v178q-21 1 -67 -2l-53 -3l-10 10v31l9 14l75 46q34 21 40 28t6 19v15q0 154 20 210
q11 30 42 68q9 11 130 126l62 59q27 27 68 64q55 40 134 40q33 0 76 -14q-1 -17 -3 -69q72 8 140 23t192 55l22 -12q-13 -374 -13 -579v-106l121 101q90 75 207 75q242 0 335 -192q44 -91 44 -202zM1517 463q0 133 -56 220q-67 103 -193 103q-57 0 -113 -27q-60 -29 -88 -75
q-2 -63 -2 -207q0 -184 2 -265q75 -111 207 -111q131 0 194 122q49 95 49 240z" />
    <glyph glyph-name="longs_h.hlig" horiz-adv-x="1846" 
d="M1803 4l-10 -11q-110 7 -166 7q-70 0 -204 -7l-10 10q18 223 18 344v196q0 244 -176 244q-94 0 -146 -65q-42 -52 -42 -134v-118q0 -203 7 -333q2 -37 22 -48.5t99 -14.5l11 -10v-61l-10 -10q-95 7 -254 7t-253 -7l-10 10v61l10 10q80 3 99.5 14.5t21.5 48.5q7 130 7 455
v335q0 210 -7 340q-2 37 -20 47.5t-65 13.5l2 -54l-31 -18q-48 50 -122 50q-54 0 -83 -22q-36 -27 -43 -117q-1 -8 -1 -130v-445q0 -454 14 -485q7 -16 29 -23.5t106 -9.5l10 -10v-61l-10 -10l-74 3q-106 4 -200 4q-159 0 -253 -7l-10 10v61l10 10q80 3 99.5 14.5t21.5 48.5
q7 130 7 455v178q-21 1 -67 -2l-53 -3l-10 10v31l9 14l75 46q34 21 40 28t6 19v15q0 154 20 210q11 30 42 68q9 11 130 126l62 59q27 27 68 64q55 40 134 40q33 0 76 -14q-1 -17 -3 -69q30 4 115 19q79 14 218 59l21 -12q0 -27 -3 -99q-10 -239 -10 -529v-56l176 148
q66 27 145 27q159 0 238 -96q64 -78 64 -229q0 -17 -4 -122t-4 -191q0 -228 28 -245q19 -12 84 -13l9 -10v-59z" />
    <glyph glyph-name="longs_k.hlig" horiz-adv-x="1852" 
d="M1831 3l-10 -10q-67 4 -163 4q-89 0 -176 -4q-56 102 -271 339q-113 125 -144 147l7 -342q2 -37 22 -49t99 -14l11 -10v-61l-10 -10q-95 7 -254 7t-253 -7l-10 10v61l10 10q65 2 80 6q39 12 41 57q7 130 7 455v335q0 210 -7 340q-2 37 -20 47.5t-65 13.5l2 -54l-31 -18
q-48 50 -122 50q-54 0 -83 -22q-36 -27 -43 -117q-1 -8 -1 -130v-445q0 -454 14 -485q7 -16 29 -23.5t106 -9.5l10 -10v-61l-10 -10l-74 3q-106 4 -200 4q-159 0 -253 -7l-10 10v61l10 10q80 3 99.5 14.5t21.5 48.5q7 130 7 455v178q-21 1 -67 -2l-53 -3l-10 10v31l9 14
l75 46q34 21 40 28t6 19v15q0 154 20 210q11 30 42 68q9 11 130 126l62 59q27 27 68 64q55 40 134 40q33 0 76 -14q-1 -17 -3 -69q30 4 115 19q79 14 218 59l21 -12q0 -27 -3 -99q-10 -239 -10 -529v-327l99 81q65 53 182 177l104 110q29 31 46 54q85 -3 138 -3q67 0 121 3
l10 -10v-60l-10 -10l-73 -4q-44 -2 -91 -35q-18 -13 -76 -60l-84 -69l-30 -28l-85 -76l214 -250l117 -135q98 -108 128 -123q21 -10 44 -10l10 -11v-61z" />
    <glyph glyph-name="s_p.hlig" horiz-adv-x="2146" 
d="M2051 580q0 -123 -44 -235q-32 -82 -84 -139q-17 -18 -86 -72q-49 -40 -165 -128q-54 -39 -150 -39q-87 0 -174 32v-375q0 -46 11 -61q6 -8 27 -13q17 -4 128 -12l11 -10v-62l-10 -10q-135 8 -307 8q-126 0 -252 -8l-10 10v60l10 11q101 3 116 16q10 9 12 19q9 45 12 251
l2 155v591q0 30 6 155q4 76 8 115q8 69 24 120q22 69 86 151l56 77q-21 -11 -61 -11q-58 0 -148 38q-27 12 -81 31t-96 19q-97 0 -150 -71q-37 -49 -37 -127q0 -57 26 -115q17 -38 38 -61q-9 -38 -15 -213l-11 -10h-57l-11 10q-4 72 -14 117q-63 80 -183 80q-71 0 -121 -33
q-57 -37 -57 -105q0 -83 85 -111q37 -12 148 -34q168 -33 222 -76q84 -67 84 -201q0 -174 -137 -272q-121 -86 -302 -86q-139 0 -298 60l-11 15q9 92 11 143l5 126l10 11h59l12 -11q4 -112 9 -132q85 -109 223 -109q81 0 134 38q60 42 60 120q0 91 -80 121q-34 13 -135 34
q-164 35 -221 80q-85 68 -85 201q0 161 125 249q109 76 278 76q89 0 159 -15q-34 63 -34 150q0 125 71 214q80 101 190 101q89 0 155 -42q24 -15 140 -106q41 -32 79 -32q50 0 108 46l34 -20q-11 -40 -23 -137.5t-14 -170.5t-9 -173l169 139q47 37 151 37q248 0 338 -190
q41 -87 41 -199zM1794 457q0 218 -115 294q-61 40 -127 40q-123 0 -204 -101v-496q91 -96 200 -96q163 0 218 169q28 86 28 190z" />
    <glyph glyph-name="uniFB06" unicode="&#xfb06;" horiz-adv-x="1599" 
d="M1583 131q-6 -7 -43 -42q-58 -55 -101 -102q-49 -16 -99 -16q-139 0 -203 81q-47 60 -45 225l3 239v250h-27l-53 -2h-41l-11 9v26l8 15q43 26 124 83v136q0 28 1.5 85t1.5 89l-110 39q-54 18 -96 18q-97 0 -150 -71q-37 -49 -37 -127q0 -57 26 -115q17 -38 38 -61
q-9 -38 -15 -213l-11 -10h-57l-11 10q-4 72 -14 117q-63 80 -183 80q-71 0 -121 -33q-57 -37 -57 -105q0 -83 85 -111q37 -12 148 -34q168 -33 222 -76q84 -67 84 -201q0 -174 -137 -272q-121 -86 -302 -86q-139 0 -298 60l-11 15q9 92 11 143l5 126l10 11h59l12 -11
q4 -112 9 -132q85 -109 223 -109q81 0 134 38q60 42 60 120q0 91 -80 121q-34 13 -135 34q-164 35 -221 80q-85 68 -85 201q0 161 125 249q109 76 278 76q89 0 159 -15q-34 63 -34 150q0 125 71 214q80 101 190 101q89 0 155 -42q24 -15 140 -106q41 -32 79 -32q41 0 94 49
l34 -20q-29 -83 -35 -203l-9 -173h33q109 0 188 7l11 -11l-14 -117l-10 -10h-208v-339q0 -160 4 -192q12 -94 118 -94q41 0 99 22z" />
    <glyph glyph-name="ordfeminine" unicode="&#xaa;" horiz-adv-x="602" 
d="M582 802l-11 -11q-52 3 -116 3q-52 0 -100 -3l-10 12l5 63l-101 -75q-13 -10 -35 -13q-7 -1 -32 -1q-143 0 -143 152q0 44 24 82q27 42 50 57q54 34 238 67q-1 84 -46 112q-32 20 -67 20q-71 0 -92 -55q-1 -3 -7 -18l-13 -6l-33 8l3 84q102 73 152 83q21 4 55 4
q120 0 172 -62q38 -45 38 -136q0 -29 -2.5 -88t-2.5 -89q0 -83 3 -107q5 -39 61 -43l10 -11v-29zM577 637h-533v65h533v-65zM351 931v149q-87 -19 -118 -41t-31 -76q0 -80 62 -80q54 0 87 48z" />
    <glyph glyph-name="ordmasculine" unicode="&#xba;" horiz-adv-x="669" 
d="M630 1079q0 -99 -37 -172q-73 -145 -267 -145q-285 0 -285 302q0 202 142 269q70 33 160 33q193 0 256 -131q31 -64 31 -156zM625 637h-579v65h579v-65zM451 1032q0 65 -7 123q-13 105 -62 136q-21 13 -53 13q-54 0 -81.5 -42.5t-27.5 -169.5q0 -270 123 -270q75 0 96 82
q12 46 12 128z" />
    <glyph glyph-name="uni207F" unicode="&#x207f;" horiz-adv-x="735" 
d="M718 803l-10 -11q-65 4 -113 4q-38 0 -123 -4l-11 10q11 133 11 200v117q0 137 -96 137q-74 0 -97 -65q-5 -14 -5 -29v-112q0 -150 7 -181q2 -7 12 -12q24 -11 52 -13l11 -10v-31l-11 -11q-58 4 -153 4q-108 0 -163 -4l-11 10v31l10 11q55 7 70 15q8 5 9 23q4 72 4 160
v81q0 47 -3 84.5t-5 44.5q-7 13 -19 15t-54 8l-10 10v28l10 11q109 10 227 48l20 -11l-1 -84l89 72q43 17 90 17q144 0 177 -115q8 -28 8 -79q0 -19 -2 -70q-3 -77 -3 -109q0 -86 3 -110q2 -20 10 -24q16 -9 61 -16l9 -10v-30z" />
    <glyph glyph-name="uni1D43" unicode="&#x1d43;" horiz-adv-x="602" 
d="M582 552l-11 -11q-52 3 -116 3q-52 0 -100 -3l-10 12l5 63l-101 -75q-13 -10 -35 -13q-7 -1 -32 -1q-143 0 -143 152q0 44 24 82q27 42 50 57q54 34 238 67q-1 84 -46 112q-32 20 -67 20q-71 0 -92 -55q-1 -3 -7 -18l-13 -6l-33 8l3 84q102 73 152 83q21 4 55 4
q120 0 172 -62q38 -45 38 -136q0 -29 -2.5 -88t-2.5 -89q0 -83 3 -107q5 -39 61 -43l10 -11v-29zM351 681v149q-87 -19 -118 -41t-31 -76q0 -80 62 -80q54 0 87 48z" />
    <glyph glyph-name="uni1D47" unicode="&#x1d47;" horiz-adv-x="735" 
d="M681 885q0 -108 -52 -186q-27 -40 -68 -68l-48 -33l-66 -46q-29 -20 -67 -28q-24 -5 -52 -5q-70 0 -147 46l-61 -40l-29 10q12 197 12 326v227q0 27 -3 139q-1 30 -3 55q-3 29 -25 33q-11 3 -51 8l-10 11v28l10 11q82 8 125 18q36 8 107 31l20 -11q-7 -198 -7 -339v-45
q37 34 114 83q25 10 70 10q107 0 169 -64.5t62 -170.5zM514 820q0 86 -42 141q-37 48 -100 48q-39 0 -70 -19q-23 -14 -37 -35q-1 -33 -1 -127q0 -119 1 -161q41 -58 118 -58q131 0 131 211z" />
    <glyph glyph-name="c.superior" horiz-adv-x="534" 
d="M516 625l-29 -63q-85 -43 -164 -43q-132 0 -205 75.5t-73 206.5q0 117 62 188q38 44 114 83q82 43 142 43q80 0 138 -26l8 -14l-15 -85q-1 -6 -5 -79l-11 -10h-31l-11 10q-1 24 -8 71q-39 50 -95 50q-123 0 -123 -170q0 -102 40 -169q49 -81 146 -81q60 0 106 25z" />
    <glyph glyph-name="uni1D48" unicode="&#x1d48;" horiz-adv-x="735" 
d="M714 551l-11 -11q-71 5 -107 5q-29 0 -122 -5l-11 9q3 34 4 81l-49 -42q-49 -44 -65 -54q-22 -10 -65 -10q-110 0 -174 85q-58 77 -58 191t44 173q16 21 93 74q74 51 103.5 62.5t62.5 11.5q56 0 106 -21v20q0 152 -7 177q-4 16 -17 18t-57 8l-10 11v28l10 11
q114 12 232 49l20 -11q0 -15 -2 -62q-6 -141 -6 -373v-187q0 -160 7 -175q5 -11 10 -13q11 -5 58 -12l11 -10v-28zM469 856q-1 40 -4 115q-32 43 -76 59q-26 9 -53 9q-75 0 -97 -76q-13 -46 -13 -110q0 -116 56 -173q36 -36 79 -36q71 0 103 60q6 29 5 152z" />
    <glyph glyph-name="uni1D49" unicode="&#x1d49;" horiz-adv-x="602" 
d="M568 873q0 -15 -1 -27l-10 -12q-79 -21 -210 -21q-23 0 -65 -1q-45 -1 -66 -1q7 -89 51 -141q48 -57 130 -57q57 0 133 37l22 -22l-26 -53q-90 -56 -193 -56q-138 0 -212 76.5t-74 211.5q0 171 113 246q93 62 193 62q92 0 153.5 -61.5t61.5 -180.5zM398 879v9
q0 157 -90 157q-97 0 -97 -156v-11q34 -4 114 -4q34 0 73 5z" />
    <glyph glyph-name="f.superior" horiz-adv-x="469" 
d="M467 1414l-3 -68l2 -62l-28 -16q-30 56 -71 56q-58 0 -68 -65q-4 -25 -4 -107v-78h45q51 0 106 4l15 -11l-15 -63l-10 -10q-26 1 -87 1h-54v-100q0 -262 6 -275.5t13 -15.5q19 -6 82 -11l10 -10v-32l-11 -10q-94 4 -182 4q-108 0 -163 -4l-11 10v32l11 10q55 5 69 13
q8 5 9 26q4 73 4 263v100q-31 -1 -93 -6v27l93 58v44q0 64 17 95q25 45 60 78l75 71l24 23q23 22 53 32q21 7 48 7t58 -10z" />
    <glyph glyph-name="uni1D4D" unicode="&#x1d4d;" horiz-adv-x="670" 
d="M665 507q0 -126 -107 -208q-99 -76 -249 -76q-104 0 -176 35q-95 45 -95 138q0 44 18 64q9 10 26 20q28 18 77 47q-69 22 -69 97q0 30 14 51q8 7 87 58q-67 22 -97.5 68.5t-30.5 103.5q0 106 85 165q74 52 185 52q116 0 184 -51q33 -1 44 -1l91 3l12 -11l-6 -53l-11 -10
h-82q6 -30 6 -62q0 -143 -141 -195q-62 -23 -123 -23q-31 0 -65 3q-19 -14 -19 -36q0 -29 39 -33q32 -3 81 -3q22 0 65.5 2t65.5 2q67 0 108 -17q83 -35 83 -130zM407 911q0 77 -22 114q-20 34 -69 34q-90 0 -90 -128q0 -151 94 -151q38 0 62.5 26.5t24.5 104.5zM521 443
q0 75 -73 75q-23 0 -91.5 1.5t-99.5 1.5q-33 0 -59 -26q-32 -31 -32 -85q0 -62 55 -95q46 -27 112 -27q76 0 132 44.5t56 110.5z" />
    <glyph glyph-name="h.superior" horiz-adv-x="735" 
d="M718 552l-10 -11q-64 4 -113 4q-39 0 -123 -4l-11 10q11 134 11 202v113q0 143 -101 143q-64 0 -92 -61q-5 -11 -5 -46v-78q0 -119 4 -192q2 -27 27 -34q25 -3 51 -5l11 -10v-32l-11 -10q-55 4 -164 4q-108 0 -163 -4l-11 10v32l10 10q57 5 70 13q8 5 9 26q4 73 4 263
v193q0 123 -4 196q-1 21 -9 26q-14 8 -68 13l-10 11v28l10 11q115 12 232 49l19 -11q0 -39 -1 -62q-6 -141 -6 -305v-16l91 75q42 17 90 17q145 0 177 -115q8 -28 8 -80q0 -19 -2 -71q-3 -77 -3 -110q0 -87 3 -111q4 -28 23 -35q7 -3 48 -5l9 -11v-30z" />
    <glyph glyph-name="i.superior" horiz-adv-x="401" 
d="M294 1308q0 -41 -28.5 -69.5t-69.5 -28.5t-69.5 29t-28.5 69q0 41 28 69.5t70 28.5q41 0 69.5 -28.5t28.5 -69.5zM375 551l-10 -10q-55 4 -164 4t-164 -4l-11 10v32l11 10q53 4 69 13q13 8 13 187v82q0 111 -8 130q-6 13 -18 15t-55 8l-10 10v29l10 11q115 10 232 49
l20 -12q-8 -110 -8 -182v-184q0 -44 4 -117q1 -27 27 -34q7 -2 51 -5l11 -10v-32z" />
    <glyph glyph-name="j.superior" horiz-adv-x="401" 
d="M296 1307q0 -40 -29 -68.5t-69 -28.5q-41 0 -70 28.5t-29 68.5t29 69.5t70 29.5t69.5 -29t28.5 -70zM293 1113q-9 -44 -9 -182v-99q0 -275 -3 -318q-10 -148 -90 -229q-65 -66 -149 -66q-37 0 -58 3l-10 36l9 14q99 0 121 69q17 55 17 294v238q0 109 -7 127
q-6 15 -17.5 17.5t-56.5 8.5l-10 10v29l10 11q115 10 232 49z" />
    <glyph glyph-name="uni1D4F" unicode="&#x1d4f;" horiz-adv-x="746" 
d="M746 551l-10 -10q-34 2 -114 2q-65 0 -109 -2q-15 27 -53 75q-24 31 -106 123l-72 81l4 -188q1 -21 9 -26q16 -9 69 -13l11 -10v-32l-10 -10q-55 4 -164 4t-164 -4l-11 10v32l11 10q53 4 69 13q8 5 9 26q4 73 4 263v193q0 123 -4 196q-1 21 -9 26q-16 9 -68 13l-10 11v28
l10 11q115 12 232 49l20 -11q0 -15 -2 -62q-6 -141 -6 -305v-173l76 60q92 73 160 147q16 18 22 28q29 -1 69 -1q41 0 59 1l11 -10v-31l-11 -10q-52 -5 -76 -17q-40 -19 -85 -59l-84 -75l131 -148q39 -46 122 -132q17 -16 40 -24q7 -3 20 -6l10 -10v-33z" />
    </font>
</defs>
</svg>
